Операция «Ы» и другие приключения Шурика (Леонид Гайдай) [1965, Мелодрама, комедия, криминал, HDRip]

Ответить на тему
 
Автор Сообщение

user ®

Стаж: 7 лет 7 месяцев

Сообщений: 20008

Пост Пост: #1 от 11-Дек-2014 19:30

[Цитировать]

Операция «Ы» и другие приключения Шурика Жанр: Мелодрама, комедия, криминал
Год выпуска: 1965
Продолжительность: 01:34:33
Режиссёр: Леонид Гайдай
В ролях: Александр Демьяненко, Наталья Селезнёва, Алексей Смирнов, Юрий Никулин, Евгений Моргунов, Георгий Вицин, Михаил Пуговкин, Виктор Павлов, Владимир Басов, Рина Зеленая
Описание: Фильм состоит из трех новелл, объединенных фигурой главного героя Шурика, попадающего в самые невероятные ситуации. В «Напарнике» Шурик сражается с хулиганом Верзилой; в «Наваждении» весьма оригинальным способом готовится к экзамену; в «Операции «Ы» предотвращает «ограбление века», на которое идет знаменитая тройка - Балбес, Трус и Бывалый.
Доп. информация:
Рейтинг: http://www.imdb.com/title/tt0059550/
Рип от:
Сэмпл: http://multi-up.com/1019455
Качество видео: HDRip
Формат видео: AVI
Видео: 640x480 (1.33:1), 23.976 fps, XviD build 73 ~963 kbps avg, 0.13 bit/pixel
Аудио: 48 kHz, MPEG Layer 3, 2 ch, ~128.00 kbps avg
MediaInfo
General
Complete name : D:\Изготовление рипа\Operatsya Y i drugie priklucheniya Shurika HDRip Шкипер.avi
Format : AVI
Format/Info : Audio Video Interleave
File size : 745 MiB
Duration : 1h 34mn
Overall bit rate : 1 101 Kbps
Writing application : VirtualDubMod 1.5.10.3 | www.virtualdub-fr.org || (build 2550/release)
Writing library : VirtualDubMod build 2550/release
Video
ID : 0
Format : MPEG-4 Visual
Format profile : Advanced Simple@L5
Format settings, BVOP : 1
Format settings, QPel : No
Format settings, GMC : No warppoints
Format settings, Matrix : Default (MPEG)
Codec ID : XVID
Codec ID/Hint : XviD
Duration : 1h 34mn
Bit rate : 964 Kbps
Width : 640 pixels
Height : 480 pixels
Display aspect ratio : 4:3
Frame rate : 23.976 fps
Color space : YUV
Chroma subsampling : 4:2:0
Bit depth : 8 bits
Scan type : Progressive
Compression mode : Lossy
Bits/(Pixel*Frame) : 0.131
Stream size : 652 MiB (88%)
Writing library : XviD 73
Audio
ID : 1
Format : MPEG Audio
Format version : Version 1
Format profile : Layer 3
Mode : Joint stereo
Mode extension : MS Stereo
Codec ID : 55
Codec ID/Hint : MP3
Duration : 1h 34mn
Bit rate mode : Constant
Bit rate : 128 Kbps
Channel(s) : 2 channels
Sampling rate : 48.0 KHz
Compression mode : Lossy
Stream size : 86.6 MiB (12%)
Alignment : Aligned on interleaves
Interleave, duration : 42 ms (1.00 video frame)
Interleave, preload duratio : 504 ms
Writing library : LAME3.99r
Encoding settings : -m j -V 4 -q 2 -lowpass 17 -b 128
Скриншот c названием фильма Скриншоты
Скачать

Скачать торрент!

Как скачивать? · Что такое торрент? · Рейтинг и ограничения

Сайт не распространяет и не хранит электронные версии произведений, а лишь предоставляет доступ к создаваемому пользователями каталогу ссылок на торрент-файлы, которые содержат только списки хеш-сумм

[Профиль] [ЛС]
Показать сообщения:    
Ответить на тему

Текущее время: Сегодня 08:37

Часовой пояс: GMT + 4



Вы не можете начинать темы
Вы не можете отвечать на сообщения
Вы не можете редактировать свои сообщения
Вы не можете удалять свои сообщения
Вы не можете голосовать в опросах
Вы не можете прикреплять файлы к сообщениям
Вы не можете скачивать файлы