Тинтин: Храм Солнца / Tintin et le temple du soleil / Seven Crystal Balls and the Prisoners of the Sun (Эдди Латесте / Eddie Lateste) [1969, мультфильм, детектив, приключения, семейный, DVB] DUB

Ответить на тему
 
Автор Сообщение

user ®

Стаж: 11 лет

Сообщений: 15145

Пост Пост: #1 от 11-Дек-2014 03:00

[Цитировать]

Тинтин: Храм Солнца / Tintin et le temple du soleil / Seven Crystal Balls and the Prisoners of the Sun- Страна: Бельгия, Франция, Швейцария
Жанр: мультфильм, детектив, приключения, семейный
Продолжительность: 01:17:38
Год выпуска: 1969
Перевод: Профессиональный (дублированный)
Русские субтитры: нет-Режиссёр: Эдди Латесте / Eddie Lateste- | Релиз: -Описание: Профессор Турнесоль надел браслет с руки мумии и был похищен потомками инков, которые увезли его в Перу. Тинтин и его друзья отправляются на поиски профессора в приключения, которые приведут их к сердцу Перу - в Храм Солнца...-Семпл: http://sendfile.su/1059748-Качество: DVB (Канал "Gulli")
Формат: MPG
Видео: 720x576 (4:3) @ 768x576, 25.000 fps, MPEG-2 Video, ~2622 Kbps, 0.253 bits/pixel
Аудио: 48.0 KHz, MPEG-1 Audio layer 2, 2 ch, 192 Kbps
Субтитры: отсутствуют
MediaInfo
GeneralComplete name : Les Aventures de Tintin - Le Temple du Soleil 1969 DUB Gulli.mpgFormat : MPEG-PSFile size : 1.56 GiBDuration : 1h 17mnOverall bit rate mode : VariableOverall bit rate : 2 871 Kbps
VideoID : 224 (0xE0)Format : MPEG VideoFormat version : Version 2Format profile : Main@MainFormat settings, BVOP : YesFormat settings, Matrix : CustomFormat settings, GOP : VariableFormat settings, picture structure : FrameDuration : 1h 17mnBit rate mode : VariableBit rate : 2 622 KbpsMaximum bit rate : 15.0 MbpsWidth : 720 pixelsHeight : 576 pixelsDisplay aspect ratio : 4:3Frame rate : 25.000 fpsStandard : PALColor space : YUVChroma subsampling : 4:2:0Bit depth : 8 bitsScan type : InterlacedScan order : Top Field FirstCompression mode : LossyBits/(Pixel*Frame) : 0.253Time code of first frame : 00:00:00:00Time code source : Group of pictures headerGOP, Open/Closed : OpenStream size : 1.42 GiB (91%)GOP, Open/Closed of first frame : Closed
AudioID : 192 (0xC0)Format : MPEG AudioFormat version : Version 1Format profile : Layer 2Duration : 1h 17mnBit rate mode : ConstantBit rate : 192 KbpsChannel(s) : 2 channelsSampling rate : 48.0 KHzCompression mode : LossyStream size : 107 MiB (7%)
Скриншоты
Скачать

Скачать торрент! Тинтин: Храм Солнца / Tintin et le temple du soleil / Seven Crystal Balls and the Prisoners of the Sun (Эдди Латесте / Eddie Lateste) [1969, мультфильм, детектив, приключения, семейный, DVB] DUB

Как скачивать? · Что такое торрент? · Рейтинг и ограничения

Сайт не распространяет и не хранит электронные версии произведений, а лишь предоставляет доступ к создаваемому пользователями каталогу ссылок на торрент-файлы, которые содержат только списки хеш-сумм

[Профиль] [ЛС]
Показать сообщения:    
Ответить на тему

Текущее время: Сегодня 19:08

Часовой пояс: GMT + 4



Вы не можете начинать темы
Вы не можете отвечать на сообщения
Вы не можете редактировать свои сообщения
Вы не можете удалять свои сообщения
Вы не можете голосовать в опросах
Вы не можете прикреплять файлы к сообщениям
Вы не можете скачивать файлы