Весна (Григорий Александров) [1947, Комедия, музыкальный, SATRip, AVC]

Ответить на тему
 
Автор Сообщение

user ®

Стаж: 7 лет 7 месяцев

Сообщений: 20008

Пост Пост: #1 от 11-Дек-2014 03:00

[Цитировать]

Весна
Жанр: Комедия, музыкальный
Страна: СССР
Студия: Мосфильм
Год выпуска: 1947
Продолжительность: 01:41:49
Режиссёр: Григорий Александров
В ролях:
Любовь Орлова … Ирина Петровна Никитина, учёная / Вера Георгиевна Шатрова, артистка
Николай Черкасов … Аркадий Михайлович Громов, кинорежиссер
Николай Коновалов … Мухин Леонид Максимович, помощник кинорежиссера
Михаил Сидоркин … Рощин Виктор Семенович, журналист
Василий Зайчиков … Мельников Иван Николаевич, профессор
Ростислав Плятт … Бубенцов Василий Григорьевич, «научный консультант», пройдоха-завхоз из Института солнца
Фаина Раневская … Маргарита Львовна, экономка:
Рина Зелёная … словоохотливая «гримерша»
Борис Петкер … Акакий Абрамович, директор театра оперетты
Галина (Гарэн) Жуковская … прима оперетты
Валентина Телегина … научный сотрудник
Александр Хвыля … актер, играющий генерала (нет в титрах)
Георгий Юматов … ассистент гримера (нет в титрах)
Алексей Консовский … актер, репетирующий Гоголя (нет в титрах)
Всеволод Ларионов … осветитель (нет в титрах)
Описание: Лирическая комедия, тему которой сами герои определяют как "пробуждение весны в душе человека". Молодая артистка оперетты Вера Шатрова впервые снимается в кино — ей предстоит сыграть роль Ирины Никитиной, крупного учёного, руководительницы Института солнца. Благодаря удивительному сходству, Никитина и Шатрова постоянно оказываются в самых невероятных ситуациях и... каждая встречает свою любовь...
Дополнительная информация:
Автор рипа: pmv
Большое спасибо за:
- Исходник DVB ([url=http://***/forum/viewtopic.php?t=4886661]http://***/forum/viewtopic.php?t=4886661[/url]) - Cheef mate
(Запись потока *.ts со спутника ABS-2, 75° в.д., с ТК «Россия-Культура»)
IMDb = 7,2/10 from 235 users - http://imdb.com/title/tt0039954/
Кинопоиск = 7.726 (1471) - http://www.kinopoisk.ru/film/45746
Временами на экране появляется на непродолжительное время рекламный баннер с названием фильма. (На первом скрине он виден)
ПРОСЬБА к СКАЧАВШИМ. НЕ УХОДИТЕ С РАЗДАЧИ, ПОМОГИТЕ ДРУГИМ СКАЧАТЬ!!!
ВНИМАНИЕ!!! РИП ФОРМАТА mkv (кодек H.264) ВОСПРОИЗВОДИТСЯ НЕ НА ВСЕХ БЫТОВЫХ ВИДЕОПЛЕЕРАХ!!!
Качество видео: SATRip-AVC
Формат видео: MKV
Видео: AVC (H.264), 720@760x560 (1,36:1), 25.000 fps, 1900 Kbps
Аудио: AC3, 48000Hz, mono (1 ch), 96.0 Kbps, CBR
Сэмпл MediaInfo
General
Complete name : D:\torrents\весна (1947).mkv
Format : Matroska
File size : 1.46 GiB
Duration : 1h 41mn 49 sec
Overall bit rate : 2 048 Kbps
Encoded date : UTC 2014-12-09 06:54:18
Writing application : mkvmerge v7.3.0 ('Nouages') 64bit built on Oct 22 2014 18:53:34
Writing library : libebml v1.3.0 + libmatroska v1.4.1
Video
ID : 1
Format : AVC
Format/Info : Advanced Video Codec
Format profile : High@L4.0
Format settings, CABAC : Yes
Format settings, ReFrames : 16 frames
Muxing mode : Container profile=Unknown@4.0
Codec ID : V_MPEG4/ISO/AVC
Duration : 1h 41mn
Bit rate : 1 912 Kbps
Nominal bit rate : 1 950 Kbps
Width : 720@760 pixels
Height : 560 pixels
Display aspect ratio : 4:3
Original display aspect ratio : 1.286
Frame rate : 25.000 fps
Resolution : 8 bits
Colorimetry : 4:2:0
Scan type : Progressive
Bits/(Pixel*Frame) : 0.190
Stream size : 1.36 GiB (93%)
Writing library : x264 core 130 r2273 b3065e6
Encoding settings : cabac=1 / ref=16 / deblock=1:0:0 / analyse=0x3:0x133 / me=umh / subme=10 / psy=1 / psy_rd=1.00:0.00 / mixed_ref=1 / me_range=24 / chroma_me=1 / trellis=2 / 8x8dct=1 / cqm=0 / deadzone=21,11 / fast_pskip=1 / chroma_qp_offset=-2 / threads=1 / lookahead_threads=1 / sliced_threads=0 / nr=0 / decimate=1 / interlaced=0 / bluray_compat=0 / constrained_intra=0 / bframes=8 / b_pyramid=2 / b_adapt=2 / b_bias=0 / direct=3 / weightb=1 / open_gop=0 / weightp=2 / keyint=250 / keyint_min=25 / scenecut=40 / intra_refresh=0 / rc_lookahead=60 / rc=2pass / mbtree=1 / bitrate=1950 / ratetol=1.0 / qcomp=0.60 / qpmin=0 / qpmax=69 / qpstep=4 / cplxblur=20.0 / qblur=0.5 / ip_ratio=1.40 / aq=1:1.00
Audio
ID : 2
Format : AC-3
Format/Info : Audio Coding 3
Codec ID : A_AC3
Duration : 1h 41mn
Bit rate mode : Constant
Bit rate : 96.0 Kbps
Channel(s) : 1 channel
Channel positions : Front: C
Sampling rate : 48.0 KHz
Stream size : 69.9 MiB (5%)
Скриншот c названием фильма Скриншоты
Скачать

Скачать торрент!

Как скачивать? · Что такое торрент? · Рейтинг и ограничения

Сайт не распространяет и не хранит электронные версии произведений, а лишь предоставляет доступ к создаваемому пользователями каталогу ссылок на торрент-файлы, которые содержат только списки хеш-сумм

[Профиль] [ЛС]
Показать сообщения:    
Ответить на тему

Текущее время: Сегодня 08:08

Часовой пояс: GMT + 4



Вы не можете начинать темы
Вы не можете отвечать на сообщения
Вы не можете редактировать свои сообщения
Вы не можете удалять свои сообщения
Вы не можете голосовать в опросах
Вы не можете прикреплять файлы к сообщениям
Вы не можете скачивать файлы