Пешаварский вальс / Побег из Афганистана / Escape from Afganistan (Тимур Бекмамбетов) [2002, Канада, США, Боевик, VHSRip] AVO (Сергей Кузнецов) [Американская версия]

Ответить на тему
 
Автор Сообщение

user ®

Стаж: 7 лет 7 месяцев

Сообщений: 20008

Пост Пост: #1 от 10-Дек-2014 16:10

[Цитировать]

Пешаварский вальс / Побег из Афганистана / Escape from Afganistan
Страна: Канада, США
Жанр: Боевик
Год выпуска: 2002
Продолжительность: 01:25:51
Перевод: Авторский (одноголосый закадровый) Сергей Кузнецов [Внимание! иногда присутствует ненормативная лексика]
Cубтитры: нет
Режиссер: Тимур Бекмамбетов
В ролях: Виктор Вербицкий, Барри Кушнер, Сергей Плотников
Описание: Это фильм о страшных днях жестокой войны в Афганистане, о русских солдатах, находящихся в жестоком плену у душманов. Пройдя через жестокие пытки и издевательства, они поднимают мятеж и предпринимают отчаянную попытку побега из плена. Но, как оказывается, они официально не признаны советским армейским командованием в качестве попавших в плен, и запросив помощь по рации, фактически "вызывают огонь на себя", становятся своего рода наводящими мишенями и героически жертвуют собой ради того, чтобы лагерь душманов вообще был уничтожен.
Доп. информация: Оцифровка VHS (личный архив) и получение VHSRip alenavova
Эксклюзив для ***. При размещении данного релиза на других сайтах ссылка на автора alenavova обязательна.

Релиз-первоисточник
Сэмпл: https://yadi.sk/i/Eiv4-RTOdDfUn
Качество видео: VHSRip
Формат видео: AVI
Видео: 640x480 (1.33:1), 25 fps, XviD build 50 ~2077 kbps avg, 0.27 bit/pixel
Аудио: 48 kHz, AC3 Dolby Digital, 2/0 (L,R) ch, ~192 kbps
MediaInfo
Пешаварский вальс [by alenavova].avi
Format : AVI
Format/Info : Audio Video Interleave
File size : 1.37 GiB
Duration : 1h 25mn
Overall bit rate : 2 279 Kbps
Movie name : Пешаварский вальс [by alenavova]
Director : by alenavova
Writing application : VirtualDubMod 1.5.10.3 | www.virtualdub-fr.org || (build 2550/release)
Copyright : Edich2
Comment : ***
Video
ID : 0
Format : MPEG-4 Visual
Format profile : Advanced Simple@L5
Format settings, BVOP : 1
Format settings, QPel : No
Format settings, GMC : No warppoints
Format settings, Matrix : Default (MPEG)
Codec ID : XVID
Codec ID/Hint : XviD
Duration : 1h 25mn
Bit rate : 2 078 Kbps
Width : 640 pixels
Height : 480 pixels
Display aspect ratio : 4:3
Frame rate : 25.000 fps
Color space : YUV
Chroma subsampling : 4:2:0
Bit depth : 8 bits
Scan type : Progressive
Compression mode : Lossy
Bits/(Pixel*Frame) : 0.271
Stream size : 1.25 GiB (91%)
Writing library : XviD 1.2.1 (UTC 2008-12-04)
Audio
ID : 1
Format : AC-3
Format/Info : Audio Coding 3
Mode extension : CM (complete main)
Format settings, Endianness : Big
Codec ID : 2000
Duration : 1h 25mn
Bit rate mode : Constant
Bit rate : 192 Kbps
Channel(s) : 2 channels
Channel positions : Front: L R
Sampling rate : 48.0 KHz
Bit depth : 16 bits
Compression mode : Lossy
Stream size : 118 MiB (8%)
Alignment : Split accross interleaves
Interleave, duration : 40 ms (1.00 video frame)
Interleave, preload duration : 500 ms
Скриншоты
Скачать

Скачать торрент!

Как скачивать? · Что такое торрент? · Рейтинг и ограничения

Сайт не распространяет и не хранит электронные версии произведений, а лишь предоставляет доступ к создаваемому пользователями каталогу ссылок на торрент-файлы, которые содержат только списки хеш-сумм

[Профиль] [ЛС]
Показать сообщения:    
Ответить на тему

Текущее время: Сегодня 04:22

Часовой пояс: GMT + 4



Вы не можете начинать темы
Вы не можете отвечать на сообщения
Вы не можете редактировать свои сообщения
Вы не можете удалять свои сообщения
Вы не можете голосовать в опросах
Вы не можете прикреплять файлы к сообщениям
Вы не можете скачивать файлы