Достань меня, если сможешь / Reach Me (Джон Херцфелд / John Herzfeld) [2014, США, драма, WEB-DL 720p] VO + Sub Eng + Original Eng

Ответить на тему
 
Автор Сообщение

user ®

Стаж: 7 лет 7 месяцев

Сообщений: 20008

Пост Пост: #1 от 10-Дек-2014 13:00

[Цитировать]

Достань меня, если сможешь / Reach Me
Страна: США
Жанр: драма
Год выпуска: 2014
Продолжительность: 01:32:13
Перевод: Одноголосый (закадровый) [PashaUp]
Оригинальная аудиодорожка: да
Cубтитры: английские
Режиссер: Джон Херцфелд / John Herzfeld
В ролях: Лорен Кохэн, Том Беренджер, Сильвестр Сталлоне, Дэнни Айелл, Дэнни Трехо, Кира Седжвик, Томас Джейн, Кевин Коннолли, Том Сайзмор, Нелли, Омари Хардвик, Дэвид О’Хара, Келси Грэммер, Терри Крюс
Описание: Книга по самосовершенствованию, написанная неким Тедди Рэймондом, которого никто никогда не видел, приобретает бешеную популярность. Экземпляры книги попадают в руки журналиста, его босса, бывшей заключенной, звезды хип-хопа, начинающей актрисы и копа, работающего под прикрытием, заставляя по-новому взглянуть на свою жизнь.
Сэмпл
Качество: WEB-DL 720p
Контейнер: MKV
Видео: AVC, 1280x528, 2,40:1, 23.976 kbps, ~3 916 kbps avg, 0.242 bit/pixel
Аудио 1: 48 kHz, AC3 Dolby Digital, 3/2 (L,C,R,l,r) + LFE ch, ~448 kbps |Rus
Аудио 2: 48 kHz, AC3 Dolby Digital, 3/2 (L,C,R,l,r) + LFE ch, ~384 kbps |Eng

MI
General
Unique ID : 195302797461837235250045085286533460958 (0x92EDF359912A6C41848C50CB89F473DE)
Complete name : C:\Users\Вячеслав\Downloads\Reach.Me.2014.L1.WEB-DL.720p.mkv
Format : Matroska
Format version : Version 4 / Version 2
File size : 3.12 GiB
Duration : 1h 32mn
Overall bit rate : 4 845 Kbps
Encoded date : UTC 2014-12-01 19:31:26
Writing application : mkvmerge v6.1.0 ('Old Devil') built on Mar 4 2013 09:10:42
Writing library : libebml v1.3.0 + libmatroska v1.4.0
Video
ID : 1
Format : AVC
Format/Info : Advanced Video Codec
Format profile : Main@L3.1
Format settings, CABAC : No
Format settings, ReFrames : 2 frames
Codec ID : V_MPEG4/ISO/AVC
Duration : 1h 32mn
Bit rate : 3 916 Kbps
Width : 1 280 pixels
Height : 528 pixels
Display aspect ratio : 2.40:1
Frame rate mode : Constant
Frame rate : 23.976 fps
Color space : YUV
Chroma subsampling : 4:2:0
Bit depth : 8 bits
Scan type : Progressive
Bits/(Pixel*Frame) : 0.242
Stream size : 2.52 GiB (81%)
Language : English
Default : Yes
Forced : No
Color primaries : BT.709
Transfer characteristics : BT.709
Matrix coefficients : BT.709
Audio #1
ID : 2
Format : AC-3
Format/Info : Audio Coding 3
Mode extension : CM (complete main)
Format settings, Endianness : Big
Codec ID : A_AC3
Duration : 1h 32mn
Bit rate mode : Constant
Bit rate : 448 Kbps
Channel(s) : 6 channels
Channel positions : Front: L C R, Side: L R, LFE
Sampling rate : 48.0 KHz
Bit depth : 16 bits
Compression mode : Lossy
Stream size : 296 MiB (9%)
Language : Russian
Default : Yes
Forced : No
Audio #2
ID : 3
Format : AC-3
Format/Info : Audio Coding 3
Mode extension : CM (complete main)
Format settings, Endianness : Big
Codec ID : A_AC3
Duration : 1h 32mn
Bit rate mode : Constant
Bit rate : 384 Kbps
Channel(s) : 6 channels
Channel positions : Front: L C R, Side: L R, LFE
Sampling rate : 48.0 KHz
Bit depth : 16 bits
Compression mode : Lossy
Stream size : 253 MiB (8%)
Language : English
Default : No
Forced : No
Text
ID : 4
Format : UTF-8
Codec ID : S_TEXT/UTF8
Codec ID/Info : UTF-8 Plain Text
Language : English
Default : No
Forced : No
Menu
00:00:00.000 : en:1
00:05:07.000 : en:2
00:12:59.000 : en:3
00:16:22.000 : en:4
00:23:26.000 : en:5
00:27:59.000 : en:6
00:34:52.000 : en:7
00:40:17.000 : en:8
00:46:15.000 : en:9
00:52:39.000 : en:10
00:59:42.000 : en:11
01:03:34.000 : en:12
01:09:09.000 : en:13
01:16:19.000 : en:14
01:19:33.000 : en:15
01:24:15.000 : en:16
Скриншоты
Скачать

Скачать торрент!

Как скачивать? · Что такое торрент? · Рейтинг и ограничения

Сайт не распространяет и не хранит электронные версии произведений, а лишь предоставляет доступ к создаваемому пользователями каталогу ссылок на торрент-файлы, которые содержат только списки хеш-сумм

[Профиль] [ЛС]
Показать сообщения:    
Ответить на тему

Текущее время: Сегодня 12:08

Часовой пояс: GMT + 4



Вы не можете начинать темы
Вы не можете отвечать на сообщения
Вы не можете редактировать свои сообщения
Вы не можете удалять свои сообщения
Вы не можете голосовать в опросах
Вы не можете прикреплять файлы к сообщениям
Вы не можете скачивать файлы