Кино про Алексеева (Михаил Сегал) [2014, Драма, DVDRip]

Ответить на тему
 
Автор Сообщение

user ®

Стаж: 7 лет 7 месяцев

Сообщений: 20008

Пост Пост: #1 от 09-Дек-2014 16:55

[Цитировать]

Кино про Алексеева-- Жанр: Драма
Год выпуска: 2014
Продолжительность: 01:30:57
Режиссёр: Михаил Сегал--В ролях: Александр Збруев, Алексей Капитонов, Татьяна Майст, Ксения Радченко, Денис Фомин, Светлана Первушина, Анастасия Попкова, Андрей Макаревич, Дмитрий Гудочкин, Иван Звягинцев
Описание: Фильм-путешествие по удивительной жизни Алексеева. Он пил чай с Тарковским, попал в КГБ из-за Гагарина, конкурировал с Калашниковым и Высоцким. Однажды он узнаёт о себе нечто большее, чем знал и мог предполагать: о своём таланте, о следе, который оставил в судьбах других людей. Жизнь можно прожить заново, если тебя кто-то любит.--Сэмпл: http://sendfile.su/1057734
Качество видео: DVDRip
Формат видео: AVI
Видео: 688x288 (1.40:1), 25.0 fps, ~1008 kbps avg, 0.20 bit/pixel
Аудио: 48 kHz, MPEG Layer 3, 2 ch, ~128.00 kbps avg

MediaInfo
Format : AVI
Format/Info : Audio Video Interleave
File size : 745 MiB
Duration : 1h 30mn
Overall bit rate : 1 146 Kbps
Writing application : VirtualDubMod 1.5.10.3 | www.virtualdub-fr.org || (build 2550/release)
Writing library : VirtualDubMod build 2550/release
Video
ID : 0
Format : MPEG-4 Visual
Format profile : Advanced Simple@L5
Format settings, BVOP : 1
Format settings, QPel : No
Format settings, GMC : No warppoints
Format settings, Matrix : Default (MPEG)
Codec ID : XVID
Codec ID/Hint : XviD
Duration : 1h 30mn
Bit rate : 1 008 Kbps
Width : 688 pixels
Height : 288 pixels
Display aspect ratio : 2.40:1
Frame rate : 25.000 fps
Color space : YUV
Chroma subsampling : 4:2:0
Bit depth : 8 bits
Scan type : Progressive
Compression mode : Lossy
Bits/(Pixel*Frame) : 0.203
Stream size : 656 MiB (88%)
Writing library : XviD 73
Audio
ID : 1
Format : MPEG Audio
Format version : Version 1
Format profile : Layer 3
Codec ID : 55
Codec ID/Hint : MP3
Duration : 1h 30mn
Bit rate mode : Constant
Bit rate : 128 Kbps
Channel(s) : 2 channels
Sampling rate : 48.0 KHz
Compression mode : Lossy
Stream size : 83.3 MiB (11%)
Alignment : Aligned on interleaves
Interleave, duration : 40 ms (1.00 video frame)
Interleave, preload duratio : 504 ms
Скриншот c названием фильма Скриншоты
Скачать

Скачать торрент!

Как скачивать? · Что такое торрент? · Рейтинг и ограничения

Сайт не распространяет и не хранит электронные версии произведений, а лишь предоставляет доступ к создаваемому пользователями каталогу ссылок на торрент-файлы, которые содержат только списки хеш-сумм

[Профиль] [ЛС]
Показать сообщения:    
Ответить на тему

Текущее время: Сегодня 02:03

Часовой пояс: GMT + 4



Вы не можете начинать темы
Вы не можете отвечать на сообщения
Вы не можете редактировать свои сообщения
Вы не можете удалять свои сообщения
Вы не можете голосовать в опросах
Вы не можете прикреплять файлы к сообщениям
Вы не можете скачивать файлы