Раскаленная Луна / High Moon (Адам Кэйн / Adam Kane) [2014, Канада, Фантастика, триллер, драма, HDTVRip] DVO (PashaUp & ИриСКА)

Ответить на тему
 
Автор Сообщение

user ®

Стаж: 7 лет 7 месяцев

Сообщений: 20008

Пост Пост: #1 от 09-Дек-2014 16:55

[Цитировать]

Раскаленная Луна / High Moon
Страна: Канада
Жанр: Фантастика, триллер, драма
Год выпуска: 2014
Продолжительность: 01:20:03
Перевод: Любительский (двухголосый закадровый) PashaUp & ИриСКА по тексту М.Васильева
Cубтитры: нет
Режиссер: Адам Кэйн / Adam Kane
В ролях: Джонатан Такер, Крис Диамантополос, Дэйна Дэвис, Черити Уэйкфилд, Джэйк Сендвиг, Даррен Шалави, Гари Чок, Констанс Ву, Кирби Мороу
Описание: В далеком будущем земляне колонизировали Луну и начали добычу полезных ископаемых. Крупные корпорации, принадлежащие различным странам, ведут борьбу за доступ к богатым месторождениям. Американцы не доверяют русским, те пытаются перехитрить американцев, все подозревают Индию и ненавидят корпорацию «Галактический странник», монополизировавшую поставки кислорода на Луну. Когда на территории, контролируемой США, происходит взрыв, правительство решает, что это теракт и отправляет на Луну секретного агента для проведения расследования…

Дополнительная информация: Те, кто не воспринимает любительскую озвучку - смотрите в оригинале и с субтитрами, но только тут не пишите гадости, в сторону тех, кто озвучивал
Качество видео: HDTVRip
Формат видео: AVI
Видео: 720x400 (1.80:1), 23.976 fps, XviD build 73 ~2040 kbps avg, 0.29 bit/pixel
Аудио: 48 kHz, AC3 Dolby Digital, 2/0 (L,R) ch, ~384 kbps
MediaInfo
General
Complete name : E:\Films\New\Raskalennaya.Luna.2014.avi
Format : AVI
Format/Info : Audio Video Interleave
File size : 1.36 GiB
Duration : 1h 20mn
Overall bit rate : 2 434 Kbps
Writing application : VirtualDubMod 1.5.10.3 | www.virtualdub-fr.org || (build 2550/release)
Writing library : VirtualDubMod build 2550/release
Video
ID : 0
Format : MPEG-4 Visual
Format profile : Advanced Simple@L5
Format settings, BVOP : 1
Format settings, QPel : No
Format settings, GMC : No warppoints
Format settings, Matrix : Custom
Codec ID : XVID
Codec ID/Hint : XviD
Duration : 1h 20mn
Bit rate : 2 041 Kbps
Width : 720 pixels
Height : 400 pixels
Display aspect ratio : 16:9
Frame rate : 23.976 fps
Color space : YUV
Chroma subsampling : 4:2:0
Bit depth : 8 bits
Scan type : Progressive
Compression mode : Lossy
Bits/(Pixel*Frame) : 0.296
Stream size : 1.14 GiB (84%)
Writing library : XviD 73
Audio
ID : 1
Format : AC-3
Format/Info : Audio Coding 3
Mode extension : CM (complete main)
Format settings, Endianness : Big
Codec ID : 2000
Duration : 1h 20mn
Bit rate mode : Constant
Bit rate : 384 Kbps
Channel(s) : 2 channels
Channel positions : Front: L R
Sampling rate : 48.0 KHz
Bit depth : 16 bits
Compression mode : Lossy
Delay relative to video : 30ms
Stream size : 220 MiB (16%)
Alignment : Split accross interleaves
Interleave, duration : 42 ms (1.00 video frame)
Interleave, preload duration : 500 ms
Скриншоты [url=http://***/forum/viewtopic.php?t=4886297]Раскаленная Луна / High Moon[/url]
Скачать

Скачать торрент!

Как скачивать? · Что такое торрент? · Рейтинг и ограничения

Сайт не распространяет и не хранит электронные версии произведений, а лишь предоставляет доступ к создаваемому пользователями каталогу ссылок на торрент-файлы, которые содержат только списки хеш-сумм

[Профиль] [ЛС]
Показать сообщения:    
Ответить на тему

Текущее время: Сегодня 05:59

Часовой пояс: GMT + 4



Вы не можете начинать темы
Вы не можете отвечать на сообщения
Вы не можете редактировать свои сообщения
Вы не можете удалять свои сообщения
Вы не можете голосовать в опросах
Вы не можете прикреплять файлы к сообщениям
Вы не можете скачивать файлы