Трудный день / A Hard Day / Kkeut-Kka-Ji-Gan-Da (Ким Сон Хун / Seong-hoon Kim) [2013, Южная Корея, триллер, криминал, боевик, HDRip] DVO [GREEN TEA]

Ответить на тему
 
Автор Сообщение

user ®

Стаж: 13 лет

Сообщений: 15071

Пост Пост: #1 от 09-Дек-2014 03:35

[Цитировать]

Трудный день / A Hard Day / Kkeut-Kka-Ji-Gan-Da- -Страна: Южная Корея
Жанр: триллер, криминал, боевик
Год выпуска: 2013
Продолжительность: 01:50:52-Перевод: Любительский (двухголосый закадровый) [GREEN TEA]-Cубтитры: нет
Оригинальная аудиодорожка: нет
Режиссер: Ким Сон Хун / Seong-hoon Kim
В ролях: Ли Сон Гюн, Чон Ман Сик, Чо Чжин Ун, Шин Дон Ми, Син Чжон Гын...
Описание: В этот день у детектива Гон Су одни неприятности. Похороны матери, служба внутренних расследований проводит обыск в его отделе. В стрессовом состоянии Гон Су сбивает своей машиной человека на шоссе. Спрятав труп в гробу своей покойной матери, офицер полиции надеется перевести дух, но опять появляется проблема - находится свидетель ДТП, который начинает угрожать и требовать что-то странное...
Релиз от -
Сэмпл: http://multi-up.com/1018360
Качество видео: BDRip [исх. [url=http://***/forum/viewtopic.php?t=4883422]BDRemux 1080p[/url]]
Формат видео: AVI
Видео: MPEG-4 Visual at 808 Кбит/сек; 688 x 288 (2.389) at 23.976 fps
Аудио: MPEG Audio at 128 Кбит/сек; 2 канала, 48,0 КГц
Автор -
MediaInfo
Общее
Полное имя : D:\Фильмы\Азиатские\Трудный день\A Hard Day.2014.BDRip.XviD.745MB. rip by [Assassin's Creed].avi
Формат : AVI
Формат/Информация : Audio Video Interleave
Размер файла : 750 Мбайт
Продолжительность : 1 ч. 50 м.
Общий поток : 945 Кбит/сек
Программа кодирования : VirtualDubMod 1.5.10.3 | www.virtualdub-fr.org || (build 2550/release)
Библиотека кодирования : VirtualDubMod build 2550/release
Видео
Идентификатор : 0
Формат : MPEG-4 Visual
Профиль формата : Advanced Simple@L5
Параметр BVOP формата : 1
Параметр QPel формата : Нет
Параметр GMC формата : Без точки перехода
Параметр матрицы формата : Default (MPEG)
Идентификатор кодека : XVID
Идентификатор кодека/Подсказка : XviD
Продолжительность : 1 ч. 50 м.
Битрейт : 808 Кбит/сек
Ширина : 688 пикселей
Высота : 288 пикселей
Соотношение сторон : 2,40:1
Частота кадров : 23,976 кадра/сек
Цветовое пространство : YUV
Субдискретизация насыщенности : 4:2:0
Битовая глубина : 8 бит
Тип развёртки : Прогрессивная
Метод сжатия : С потерями
Бит/(Пиксели*Кадры) : 0.170
Размер потока : 641 Мбайт (85%)
Библиотека кодирования : XviD 1.2.1 (UTC 2008-12-04)
Аудио
Идентификатор : 1
Формат : MPEG Audio
Версия формата : Version 1
Профиль формата : Layer 3
Идентификатор кодека : 55
Идентификатор кодека/Подсказка : MP3
Продолжительность : 1 ч. 50 м.
Вид битрейта : Постоянный
Битрейт : 128 Кбит/сек
Каналы : 2 канала
Частота : 48,0 КГц
Метод сжатия : С потерями
Размер потока : 102 Мбайт (14%)
Выравнивание : Соединение по промежуткам
Продолжительность промежутка : 42 мс. (1,00 видеокадр)
Время предзагрузки промежутка : 504 мс.
Библиотека кодирования : LAME3.99r
Настройки программы : -m s -V 4 -q 2 -lowpass 17 -b 128
Скриншот c названием фильма Скриншоты
Скачать

Скачать торрент! Трудный день / A Hard Day / Kkeut-Kka-Ji-Gan-Da (Ким Сон Хун / Seong-hoon Kim) [2013, Южная Корея, триллер, криминал, боевик, HDRip] DVO [GREEN TEA]

Как скачивать? · Что такое торрент? · Рейтинг и ограничения

Сайт не распространяет и не хранит электронные версии произведений, а лишь предоставляет доступ к создаваемому пользователями каталогу ссылок на торрент-файлы, которые содержат только списки хеш-сумм

[Профиль] [ЛС]
Показать сообщения:    
Ответить на тему

Текущее время: Сегодня 20:57

Часовой пояс: GMT + 4



Вы не можете начинать темы
Вы не можете отвечать на сообщения
Вы не можете редактировать свои сообщения
Вы не можете удалять свои сообщения
Вы не можете голосовать в опросах
Вы не можете прикреплять файлы к сообщениям
Вы не можете скачивать файлы