Донни Браско / Donnie Brasco (Майк Ньюэлл / Mike Newell) [1997, США, триллер, драма, криминал, биография, BDRip 720p] [Theatrical Cut / Театральная версия] MVO (Видеосервис) + Original Eng

Ответить на тему
 
Автор Сообщение

user ®

Стаж: 7 лет 7 месяцев

Сообщений: 20008

Пост Пост: #1 от 09-Дек-2014 03:35

[Цитировать]

Донни Браско / Donnie Brasco / [Театральная версия / Theatrical Cut]
Страна: США
Жанр: триллер, драма, криминал, биография
Год выпуска: 1997
Продолжительность: 02:06:38
Перевод: Профессиональный (многоголосый закадровый) Видеосервис
Cубтитры: нет
Оригинальная аудиодорожка: английский
Режиссер: Майк Ньюэлл / Mike Newell
В ролях: Аль Пачино, Джонни Депп, Майкл Мэдсен, Бруно Кёрби, Джеймс Руссо, Энн Хеч, Желько Иванек, Джерри Бекер, Роберт Миано, Брайан Тарантина
Описание: Нью Йорк, 1978 год. Агент ФБР Джо Пистоне получает новое задание: внедриться в одну из преступных группировок Бруклина с целью получения полноценной информации о деятельности гангстерских банд. Он должен забыть свое настоящее имя, порвать со всеми друзьями и родными, так как теперь он — Донни Браско.
Его лучшим другом становится стареющий мафиози, нуждающийся в молодом напарнике. Он верит в Донни и поручает ему самые ответственные дела. Чувствуя свою безнаказанность, Донни понимает: как ни затянула его новая жизнь, дающая практически неограниченную свободу, вернуться обратно еще не поздно.
Нужно лишь сделать решающий шаг и предать того, кто стал для него настоящим другом.

Сэмпл: https://yadi.sk/i/rIpl6DIRdAsxB
Тип релиза: BDRip 720p
Контейнер: MKV
Видео: AVC, 1280x532 (2.40:1), 7800 kbps, 23.976 fps
Аудио: AC-3 / 5.1 ch / 48 kHz / 16 bit / 448 kbps - MVO [Видеосервис].
Аудио 2: AC-3 / 5.1 ch / 48 kHz / 16 bit / 448 kbps - Original.
MediaInfo
D:\Sem\Desktop\Донни Браско.Theatrical cut. BDRip. 720p. (1).mkv
General
Unique ID : 172878410682601746995317183281528534082 (0x820F2BB8B53C6575B1B03BB9791F7442)
Complete name : D:\Sem\Desktop\Донни Браско.Theatrical cut. BDRip. 720p. (1).mkv
Format : Matroska
Format version : Version 4 / Version 2
File size : 7.69 GiB
Duration : 2h 6mn
Overall bit rate : 8 695 Kbps
Movie name : Donnie Brasco (1997)
Encoded date : UTC 2014-12-05 09:57:34
Writing application : mkvmerge v6.6.0 ('The Edge Of The In Between') built on Dec 1 2013 17:55:00
Writing library : libebml v1.3.0 + libmatroska v1.4.1
Video #1
ID : 1
Format : AVC
Format/Info : Advanced Video Codec
Format profile : High@L4.1
Format settings, CABAC : Yes
Format settings, ReFrames : 12 frames
Codec ID : V_MPEG4/ISO/AVC
Duration : 2h 6mn
Bit rate : 7 800 Kbps
Width : 1 280 pixels
Height : 532 pixels
Display aspect ratio : 2.40:1
Frame rate : 23.976 fps
Color space : YUV
Chroma subsampling : 4:2:0
Bit depth : 8 bits
Scan type : Progressive
Bits/(Pixel*Frame) : 0.478
Stream size : 6.75 GiB (88%)
Writing library : x264 core 133 r2334 a3ac64b
Encoding settings : cabac=1 / ref=12 / deblock=1:-3:-3 / analyse=0x3:0x133 / me=tesa / subme=10 / psy=1 / psy_rd=1.10:0.00 / mixed_ref=1 / me_range=24 / chroma_me=1 / trellis=2 / 8x8dct=1 / cqm=0 / deadzone=21,11 / fast_pskip=0 / chroma_qp_offset=-2 / threads=12 / lookahead_threads=2 / sliced_threads=0 / nr=0 / decimate=0 / interlaced=0 / bluray_compat=0 / constrained_intra=0 / bframes=8 / b_pyramid=2 / b_adapt=2 / b_bias=0 / direct=3 / weightb=1 / open_gop=0 / weightp=2 / keyint=250 / keyint_min=23 / scenecut=40 / intra_refresh=0 / rc_lookahead=60 / rc=2pass / mbtree=0 / bitrate=7800 / ratetol=1.0 / qcomp=0.75 / qpmin=0 / qpmax=69 / qpstep=4 / cplxblur=20.0 / qblur=0.5 / vbv_maxrate=50000 / vbv_bufsize=62500 / nal_hrd=none / ip_ratio=1.30 / pb_ratio=1.20 / aq=1:0.75
Language : English
Default : Yes
Forced : No
Audio #2
ID : 2
Format : AC-3
Format/Info : Audio Coding 3
Mode extension : CM (complete main)
Format settings, Endianness : Big
Codec ID : A_AC3
Duration : 2h 6mn
Bit rate mode : Constant
Bit rate : 448 Kbps
Channel(s) : 6 channels
Channel positions : Front: L C R, Side: L R, LFE
Sampling rate : 48.0 KHz
Bit depth : 16 bits
Compression mode : Lossy
Stream size : 406 MiB (5%)
Title : AC-3 / 5.1 ch / 48 kHz / 16 bit / 448 kbps - MVO [Видеосервис].
Language : Russian
Default : Yes
Forced : No
Audio #3
ID : 3
Format : AC-3
Format/Info : Audio Coding 3
Mode extension : CM (complete main)
Format settings, Endianness : Big
Codec ID : A_AC3
Duration : 2h 6mn
Bit rate mode : Constant
Bit rate : 448 Kbps
Channel(s) : 6 channels
Channel positions : Front: L C R, Side: L R, LFE
Sampling rate : 48.0 KHz
Bit depth : 16 bits
Compression mode : Lossy
Stream size : 406 MiB (5%)
Title : AC-3 / 5.1 ch / 48 kHz / 16 bit / 448 kbps - Original.
Language : English
Default : No
Forced : No
Скриншоты
Скачать

Скачать торрент!

Как скачивать? · Что такое торрент? · Рейтинг и ограничения

Сайт не распространяет и не хранит электронные версии произведений, а лишь предоставляет доступ к создаваемому пользователями каталогу ссылок на торрент-файлы, которые содержат только списки хеш-сумм

[Профиль] [ЛС]
Показать сообщения:    
Ответить на тему

Текущее время: Сегодня 00:08

Часовой пояс: GMT + 4



Вы не можете начинать темы
Вы не можете отвечать на сообщения
Вы не можете редактировать свои сообщения
Вы не можете удалять свои сообщения
Вы не можете голосовать в опросах
Вы не можете прикреплять файлы к сообщениям
Вы не можете скачивать файлы