Это, блин, рождественское чудо / A Merry Friggin\' Christmas (Тристрам Шапиро / Tristram Shapeero) [2014, США, комедия, HDRip] VO (R.A.I.M)

Ответить на тему
 
Автор Сообщение

user ®

Стаж: 7 лет 7 месяцев

Сообщений: 20008

Пост Пост: #1 от 09-Дек-2014 03:35

[Цитировать]

Это, блин, рождественское чудо / A Merry Friggin' Christmas
«Spend it with the ones you loathe»
Страна: США
Жанр: комедия
Год выпуска: 2014
Продолжительность: 01:21:45
Перевод: Одноголосый закадровый [R.A.I.M]
Cубтитры: нет
Режиссер: Тристрам Шапиро / Tristram Shapeero
Cценарий: Майкл Браун
Продюсеры: Том Райс, Энтони Руссо, Джо Руссо
Композитор: Джон Садофф
В ролях: Джоэл МакХэйл, Лорен Грэм, Кларк Дьюк, Оливер Платт, Венди МакЛендон-Кови, Тим Хайдекер, Кэндис Берген, Робин Уильямс, Мэтт Джонс, Джеффри Тэмбор
Описание: Бойд Митчлер и его жена Луанн решают провести Рождество с отцом Бойда Митчем и его, мягко выражаясь, странноватым семейством. Сообразив, что он забыл дома все подарки, Бойд в компании брата и отца прыгает в машину и пытается совершить невозможное: съездить домой и вернуться обратно до рассвета.
Премьера (мир): 17 октября 2014
Рейтинг MPAA: PG-13
Сэмпл: http://multi-up.com/1018213
Качество видео: HDRip
Формат видео: AVI
Видео: XVID, 720 x 408 (16:9), 23.976 fps, 2 008 Kbps, 0.285
Аудио: AC-3, 48.0 KHz, 6 ch (Front: L C R, Side: L R, LFE), 384 Kbps
MediaInfo
General
Полное имя : D:\FFOutput\Eto.Blin.Rozhdestvenskoe.Chudo.2014.HDRip.avi
Формат : AVI
Формат/Информация : Audio Video Interleave
Размер файла : 1.37 GiB
Продолжительность : 1h 21mn
Общий поток : 2 402 Kbps
Программа кодирования : VirtualDubMod 1.5.10.2 (build 2540/release)
Библиотека кодирования : Boilsoft AVI tool build 30012/release
Video
Идентификатор : 0
Формат : MPEG-4 Visual
Профиль формата : Advanced Simple@L5
Параметр BVOP формата : 2
Параметр QPel формата : No
Параметр GMC формата : No warppoints
Параметр матрицы формата : Default (H.263)
Идентификатор кодека : XVID
Идентификатор кодека/Подсказка : XviD
Продолжительность : 1h 21mn
Битрейт : 2 008 Kbps
Ширина : 720 pixels
Высота : 408 pixels
Соотношение сторон : 16:9
Частота кадров : 23.976 fps
Цветовое пространство : YUV
Субдискретизация насыщенности : 4:2:0
Битовая глубина : 8 bits
Тип развёртки : Progressive
Метод сжатия : Lossy
Бит/(Пиксели*Кадры) : 0.285
Размер потока : 1.15 GiB (84%)
Библиотека кодирования : XviD 1.2.1 (UTC 2008-12-04)
Audio
Идентификатор : 1
Формат : AC-3
Формат/Информация : Audio Coding 3
Расширение режима : CM (complete main)
Параметр Endianness формата : Big
Идентификатор кодека : 2000
Продолжительность : 1h 21mn
Вид битрейта : Constant
Битрейт : 384 Kbps
Каналы : 6 channels
Расположение каналов : Front: L C R, Side: L R, LFE
Частота : 48.0 KHz
Битовая глубина : 16 bits
Метод сжатия : Lossy
Размер потока : 225 MiB (16%)
Выравнивание : Split accross interleaves
Продолжительность промежутка : 42 ms (1.00 video frame)
Время предзагрузки промежутка : 500 ms
Скриншот c названием фильма Скриншоты
Скачать

Скачать торрент!

Как скачивать? · Что такое торрент? · Рейтинг и ограничения

Сайт не распространяет и не хранит электронные версии произведений, а лишь предоставляет доступ к создаваемому пользователями каталогу ссылок на торрент-файлы, которые содержат только списки хеш-сумм

[Профиль] [ЛС]
Показать сообщения:    
Ответить на тему

Текущее время: Сегодня 12:34

Часовой пояс: GMT + 4



Вы не можете начинать темы
Вы не можете отвечать на сообщения
Вы не можете редактировать свои сообщения
Вы не можете удалять свои сообщения
Вы не можете голосовать в опросах
Вы не можете прикреплять файлы к сообщениям
Вы не можете скачивать файлы