Снеговики / Snowmen (Роберт Кирбюсон / Robert Kirbyson) [2010, США, мелодрама, семейный, WEB-DL 720p] VO + Sub (Rus, Eng) + Original Eng

Ответить на тему
 
Автор Сообщение

user ®

Стаж: 7 лет 7 месяцев

Сообщений: 20008

Пост Пост: #1 от 09-Дек-2014 00:25

[Цитировать]

Снеговики / SnowmenHeroes aren't born... they're made- Страна: США
Студия: Mpower Pictures, Snowmen
Жанр: мелодрама, семейный
Год выпуска: 2010
Продолжительность: 01:25:14
Перевод: Одноголосый закадровый В. Прошин
Оригинальная аудиодорожка: английский
Русские субтитры: есть (polyaev, alonso, prostotak)
Другие субтитры: английские-Режиссер: Роберт Кирбюсон / Robert Kirbyson
Сценарий: Роберт Кирбюсон / Robert Kirbyson
Композитор: Джон Дебни / John Debney
Оператор: Джено Сальватори / Geno Salvatori
В ролях: Бобби Коулмэн / Bobby Coleman, Бобби Дж. Томпсон / Bobb'e J. Thompson, Кристиан Мартин / Christian Martyn, Джош Флиттер / Josh Flitter, Рэй Лиотта / Ray Liotta, Даг Э. / Даг Doug E. Doug, Кристофер Ллойд / Christopher Lloyd, Беверли Митчелл / Beverley Mitchell, Деми Петерсен / Demi Petersen, Каролина Эндрус / Carolina Andrus, Энн Сворд / Anne Sward, Джофф Хансен / Geoff Hansen, Сюзанна Сатчи / Susanne Sutchy.-Описание: Трогательная история о трех приятелях и зиме, которая изменила их жизнь. Наигравшись в снежки, они вдруг оказываются в центре внимания, решив попасть в Книгу рекордов Гиннеса. Для этого нужно слепить как можно больше снеговиков за один день. По ходу дела троица противостоит компании школьных хулиганов и открывает для себя, что слава — штука мимолетная, а вот дружба может длиться вечно.- -Тип релиза: WEB-DL 720p Источник сборки - iTunesКонтейнер: MKV
Видео: H264, High@L3.1, 1280x690 (1.85:1), 23.976 fps, 0.191 bpp, 4 049 Kbps
Аудио 1: AC3, 48 kHz, 3/2 (L,C,R,l,r) + LFE ch, 448 kbps | Russian VO
Аудио 2: AC3, 48 kHz, 3/2 (L,C,R,l,r) + LFE ch, 384 kbps | English
Субтитры: русские, английские
Формат субтитров: softsub (SRT)-

MediaInfo
Complete name                  : Snowmen.2010.720p.WEB-DL.H264.mkv
Format                         : Matroska
Format version                 : Version 2
File size                      : 2.96 GiB
Duration                       : 1h 25mn
Overall bit rate               : 4 980 Kbps
Movie name                     : Snowmen 2010
Encoded date                   : UTC 2014-12-06 23:26:35
Writing application            : mkvmerge v4.9.1 ('Ich will') сборка от Jul 11 2011 23:53:15
Writing library                : libebml v1.2.1 + libmatroska v1.1.1
Video
ID                             : 1
Format                         : AVC
Format/Info                    : Advanced Video Codec
Format profile                 : High@L3.1
Format settings, CABAC         : No
Format settings, ReFrames      : 2 frames
Codec ID                       : V_MPEG4/ISO/AVC
Duration                       : 1h 25mn
Bit rate                       : 4 049 Kbps
Width                          : 1 280 pixels
Height                         : 690 pixels
Display aspect ratio           : 1.85:1
Frame rate mode                : Constant
Frame rate                     : 23.976 fps
Color space                    : YUV
Chroma subsampling             : 4:2:0
Bit depth                      : 8 bits
Scan type                      : Progressive
Bits/(Pixel*Frame)             : 0.191
Stream size                    : 2.41 GiB (81%)
Title                          : tt1373406
Language                       : English
Default                        : Yes
Forced                         : No
Color primaries                : BT.709
Transfer characteristics       : BT.709
Matrix coefficients            : BT.709
Color range                    : Limited
Audio #1
ID                             : 2
Format                         : AC-3
Format/Info                    : Audio Coding 3
Mode extension                 : CM (complete main)
Format settings, Endianness    : Big
Codec ID                       : A_AC3
Duration                       : 1h 25mn
Bit rate mode                  : Constant
Bit rate                       : 448 Kbps
Channel(s)                     : 6 channels
Channel positions              : Front: L C R, Side: L R, LFE
Sampling rate                  : 48.0 KHz
Bit depth                      : 16 bits
Compression mode               : Lossy
Stream size                    : 273 MiB (9%)
Title                          : Russian VO
Language                       : Russian
Default                        : Yes
Forced                         : No
Audio #2
ID                             : 3
Format                         : AC-3
Format/Info                    : Audio Coding 3
Mode extension                 : CM (complete main)
Format settings, Endianness    : Big
Codec ID                       : A_AC3
Duration                       : 1h 25mn
Bit rate mode                  : Constant
Bit rate                       : 384 Kbps
Channel(s)                     : 6 channels
Channel positions              : Front: L C R, Side: L R, LFE
Sampling rate                  : 48.0 KHz
Bit depth                      : 16 bits
Compression mode               : Lossy
Stream size                    : 234 MiB (8%)
Title                          : English
Language                       : English
Default                        : No
Forced                         : No
Text #1
ID                             : 4
Format                         : UTF-8
Codec ID                       : S_TEXT/UTF8
Codec ID/Info                  : UTF-8 Plain Text
Title                          : Russian
Language                       : Russian
Default                        : No
Forced                         : No
Text #2
ID                             : 5
Format                         : UTF-8
Codec ID                       : S_TEXT/UTF8
Codec ID/Info                  : UTF-8 Plain Text
Title                          : English
Language                       : English
Default                        : No
Forced                         : No
Menu
00:00:00.000                   : en:Chapter 01
00:09:08.000                   : en:Chapter 02
00:18:39.000                   : en:Chapter 03
00:26:42.000                   : en:Chapter 04
00:35:26.000                   : en:Chapter 05
00:43:48.000                   : en:Chapter 06
00:51:10.000                   : en:Chapter 07
01:00:07.000                   : en:Chapter 08
01:08:53.000                   : en:Chapter 09
01:19:24.000                   : en:Chapter 10
Скриншоты
Скачать

Скачать торрент!

Как скачивать? · Что такое торрент? · Рейтинг и ограничения

Сайт не распространяет и не хранит электронные версии произведений, а лишь предоставляет доступ к создаваемому пользователями каталогу ссылок на торрент-файлы, которые содержат только списки хеш-сумм

[Профиль] [ЛС]
Показать сообщения:    
Ответить на тему

Текущее время: Сегодня 13:38

Часовой пояс: GMT + 4



Вы не можете начинать темы
Вы не можете отвечать на сообщения
Вы не можете редактировать свои сообщения
Вы не можете удалять свои сообщения
Вы не можете голосовать в опросах
Вы не можете прикреплять файлы к сообщениям
Вы не можете скачивать файлы