Инквизитор: Колодец и маятник / The Pit and the Pendulum / The Inquisitor (Стюарт Гордон / Stuart Gordon) [1991, США, мистика, ужасы, BDRip 720p] AVO (Живов) + original (eng)

Ответить на тему
 
Автор Сообщение

user ®

Стаж: 7 лет 7 месяцев

Сообщений: 20008

Пост Пост: #1 от 09-Дек-2014 00:25

[Цитировать]

Колодец и маятник / The Pit and the Pendulum
Год выпуска: 1991
Страна: США
Жанр: мистика, ужасы
Продолжительность: 01:36:40
Перевод: Авторский (одноголосый, закадровый)(Ю.Живов)
Субтитры: отсутствуют
Оригинальная аудиодорожка: английский
Режиссер: Стюарт Гордон / Stuart Gordon
В ролях: Лэнс Хенриксен, Стивен Ли, Уильям Дж. Норрис, Марк Маргулис, Кэролин Перди-Гордон, Барбара Боччи, Бенито Стефанелли, Джеффри Комбс, Том Тоулс, Рона Де Риччи
Описание: Конец 15 века. Святая Инквизиция, возглавляемая зловещим Торквемадой, с именем Бога на устах пытается установить в католическом мире диктатуру насилия и ужаса. Зло в белых одеждах повсюду. Оно не знает сострадания и жалости. Ведьмы, костры, таинственные ритуалы — ужасная карусель…

Качество: BDRip 720p
Формат: MKV
Видео кодек: H.264
Аудио кодек: AC3, DTS
Видео: 1194x720 / MPEG-4 AVC Video / 6021 kbps / 24,00 fps / High Profile 4.1
Аудио1: Русский, AC3 2.0 192 Kbps 48,0 КГц(Zhivov)
Аудио2: English, DTS 5.1 1536 Kbps 48,0 КГц(Original)
Главы
MediaInfo
Общее
Уникальный идентификатор : 182279766923324859913374257979045178091 (0x8921CE5F048AF86A8A2E37D9E1DBEAEB)
Полное имя : D:\The.Pit.and.the.Pendulum.1991.720p.BDRip.Rus.Eng.mkv
Формат : Matroska
Версия формата : Version 4 / Version 2
Размер файла : 5,32 Гбайт
Продолжительность : 1 ч. 36 м.
Общий поток : 7878 Кбит/сек
Название фильма : The Pit and the Pendulum
Дата кодирования : UTC 2014-12-07 06:32:25
Программа кодирования : mkvmerge v7.3.0 ('Nouages') 32bit built on Oct 22 2014 18:44:01
Библиотека кодирования : libebml v1.3.0 + libmatroska v1.4.1
DURATION : 01:36:38.400000000
NUMBER_OF_FRAMES : 181200
NUMBER_OF_BYTES : 139161600
_STATISTICS_WRITING_APP : mkvmerge v7.3.0 ('Nouages') 32bit built on Oct 22 2014 18:44:01
_STATISTICS_WRITING_DATE_UTC : 2014-12-07 06:32:25
_STATISTICS_TAGS : BPS DURATION NUMBER_OF_FRAMES NUMBER_OF_BYTES
Видео
Идентификатор : 1
Формат : AVC
Формат/Информация : Advanced Video Codec
Профиль формата : High@L4.1
Параметр CABAC формата : Да
Параметр ReFrames формата : 9 кадров
Идентификатор кодека : V_MPEG4/ISO/AVC
Продолжительность : 1 ч. 36 м.
Битрейт : 6021 Кбит/сек
Ширина : 1194 пикселя
Высота : 720 пикселей
Соотношение сторон : 1,658
Режим частоты кадров : Постоянный
Частота кадров : 24,000 кадра/сек
Цветовое пространство : YUV
Субдискретизация насыщенности : 4:2:0
Битовая глубина : 8 бит
Тип развёртки : Прогрессивная
Бит/(Пиксели*Кадры) : 0.292
Размер потока : 4,07 Гбайт (76%)
Заголовок : The Pit and the Pendulum 1991 720p BluRay DD5.1 x264-VietHD
Библиотека кодирования : x264 core 142 r2491kMod 24e4fed
Настройки программы : cabac=1 / ref=9 / deblock=1:-3:-3 / analyse=0x3:0x133 / me=umh / subme=10 / psy=1 /
fade_compensate=0.00 / psy_rd=1.10:0.00 / mixed_ref=1 / me_range=24 / chroma_me=1 / trellis=2 / 8x8dct=1 / cqm=0 / deadzone=21,11 /
fast_pskip=1 / chroma_qp_offset=-2 / threads=12 / lookahead_threads=2 / sliced_threads=0 / nr=0 / decimate=1 / interlaced=0 /
bluray_compat=0 / constrained_intra=0 / fgo=0 / bframes=8 / b_pyramid=2 / b_adapt=2 / b_bias=0 / direct=3 / weightb=1 / open_gop=0 /
weightp=2 / keyint=250 / keyint_min=24 / scenecut=40 / intra_refresh=0 / rc=crf / mbtree=0 / crf=17.9000 / qcomp=0.60 / qpmin=0 / qpmax=69
/ qpstep=4 / ip_ratio=1.20 / pb_ratio=1.10 / aq=3:0.64
Default : Нет
Forced : Нет
Коэффициенты матрицы : BT.709
_STATISTICS_WRITING_APP : mkvmerge v7.3.0 ('Nouages') 32bit built on Oct 22 2014 18:44:01
_STATISTICS_WRITING_DATE_UTC : 2014-12-07 06:32:25
_STATISTICS_TAGS : BPS DURATION NUMBER_OF_FRAMES NUMBER_OF_BYTES
DURATION : 01:36:40.959000000
NUMBER_OF_FRAMES : 139223
NUMBER_OF_BYTES : 4477580964
Аудио #1
Идентификатор : 2
Формат : AC-3
Формат/Информация : Audio Coding 3
Расширение режима : CM (complete main)
Параметр Endianness формата : Big
Идентификатор кодека : A_AC3
Продолжительность : 1 ч. 36 м.
Вид битрейта : Постоянный
Битрейт : 192 Кбит/сек
Каналы : 2 канала
Расположение каналов : Front: L R
Частота : 48,0 КГц
Битовая глубина : 16 бит
Метод сжатия : С потерями
Размер потока : 133 Мбайт (2%)
Заголовок : Zhivov AC3 2.0 192 kbps
Язык : Russian
Default : Нет
Forced : Нет
Аудио #2
Идентификатор : 3
Формат : DTS
Формат/Информация : Digital Theater Systems
Режим : 16
Параметр Endianness формата : Big
Идентификатор кодека : A_DTS
Продолжительность : 1 ч. 36 м.
Вид битрейта : Постоянный
Битрейт : 1509 Кбит/сек
Каналы : 6 каналов
Расположение каналов : Front: L C R, Side: L R, LFE
Частота : 48,0 КГц
Битовая глубина : 16 бит
Метод сжатия : С потерями
Размер потока : 1,02 Гбайт (19%)
Заголовок : Original DTS 5.1 1536 kbps
Язык : English
Default : Нет
Forced : Нет
Меню
00:00:00.000 : en:00:00:00.000
00:04:33.958 : en:00:04:33.958
00:07:25.292 : en:00:07:25.292
00:11:27.000 : en:00:11:27.000
00:17:03.083 : en:00:17:03.083
00:19:38.958 : en:00:19:38.958
00:24:16.125 : en:00:24:16.125
00:26:43.083 : en:00:26:43.083
00:29:37.292 : en:00:29:37.292
00:35:11.083 : en:00:35:11.083
00:38:54.917 : en:00:38:54.917
00:41:58.333 : en:00:41:58.333
00:45:48.958 : en:00:45:48.958
00:50:03.208 : en:00:50:03.208
00:55:09.792 : en:00:55:09.792
01:02:58.542 : en:01:02:58.542
01:07:36.208 : en:01:07:36.208
01:09:46.292 : en:01:09:46.292
01:13:55.667 : en:01:13:55.667
01:17:39.042 : en:01:17:39.042
01:20:49.250 : en:01:20:49.250
01:24:52.292 : en:01:24:52.292
01:29:56.583 : en:01:29:56.583
01:33:55.417 : en:01:33:55.417
Сэмпл Скриншоты
Скачать

Скачать торрент!

Как скачивать? · Что такое торрент? · Рейтинг и ограничения

Сайт не распространяет и не хранит электронные версии произведений, а лишь предоставляет доступ к создаваемому пользователями каталогу ссылок на торрент-файлы, которые содержат только списки хеш-сумм

[Профиль] [ЛС]
Показать сообщения:    
Ответить на тему

Текущее время: Сегодня 14:14

Часовой пояс: GMT + 4



Вы не можете начинать темы
Вы не можете отвечать на сообщения
Вы не можете редактировать свои сообщения
Вы не можете удалять свои сообщения
Вы не можете голосовать в опросах
Вы не можете прикреплять файлы к сообщениям
Вы не можете скачивать файлы