Переводчик / Сезон: 1 / Серии: 4 из 4 (Андрей Прошкин) [2013, Драма, военный, WEB-DLRip]

Ответить на тему
 
Автор Сообщение

user ®

Стаж: 7 лет 7 месяцев

Сообщений: 20008

Пост Пост: #1 от 09-Дек-2014 00:25

[Цитировать]

Переводчик
Год выпуска: 2013
Производство: "Марс Медиа Энтертейнмент"
Жанр: Драма, военный
Продолжительность: 00:49:00
Субтитры: нет
Режиссёр: Андрей Прошкин
В ролях: Виталий Хаев, Йоахим Пауль Ассбeк, Лариса Малеванная, Карина Андоленко, Ханс-Георг Блюмрайтер, Петар Зекавица, Анна Уколова, Борис Каморзин, Ольга Лапшина, Михаил Горбатов, Камиль Тукаев
Описание: Преподаватель химии Андрей Петрович Стариков по прозвищу "Чарли Чаплин" живет с женой и матерью в старом доме-колодце, в котором, как в ковчеге, собрался пестрый интернационал: украинцы, русские, евреи, татары и армяне. Но приход немцев резко меняет их жизни. Чтобы спасти своих близких, Чарли вынужден служить переводчиком в фашистском штабе...
[url=http://***/forum/tracker.php?f=22&nm=Переводчик]Все раздачи сериала[/url]
Сэмпл: http://multi-up.com/1018115
Качество: WEB-DLRip
Формат: MKV
Видео кодек: MPEG2
Аудио кодек: AC3
Видео: AVC MPEG-4 (x264), 1280х720 (16:9), 25 fps, High@L3.1 ~ 1800 kbps avg, 0.078 bit/pixel
Аудио: AC3, 48 kHz, 2 ch, 192 kbps avg
MI
C:\Users\Арсен\Desktop\Perevodchik.2014.WEB-DL.(720p).MediaClub\Perevodchik.(01.seriya.iz.04).2014.WEB-DL.(720p).MediaClub.mkv
General
Unique ID : 221748276239934062726878905059159357554 (0xA6D32A1ED036A684A9C6ED5240D4B872)
Complete name : C:\Users\Арсен\Desktop\Perevodchik.2014.WEB-DL.(720p).MediaClub\Perevodchik.(01.seriya.iz.04).2014.WEB-DL.(720p).MediaClub.mkv
Format : Matroska
Format version : Version 4 / Version 2
File size : 708 MiB
Duration : 49mn 44s
Overall bit rate : 1 989 Kbps
Movie name : Perevodchik.(01.seriya.iz.04).2014.WEB-DL.(720p).MediaClub
Encoded date : UTC 2014-05-05 21:20:32
Writing application : mkvmerge v6.3.0 ('You can't stop me!') built on Jun 28 2013 20:09:41
Writing library : libebml v1.3.0 + libmatroska v1.4.0
Video #1
ID : 1
Format : AVC
Format/Info : Advanced Video Codec
Format profile : High@L3.1
Format settings, CABAC : Yes
Format settings, ReFrames : 3 frames
Codec ID : V_MPEG4/ISO/AVC
Duration : 49mn 44s
Bit rate : 1 800 Kbps
Width : 1 280 pixels
Height : 720 pixels
Display aspect ratio : 16:9
Frame rate : 25.000 fps
Color space : YUV
Chroma subsampling : 4:2:0
Bit depth : 8 bits
Scan type : Progressive
Bits/(Pixel*Frame) : 0.078
Stream size : 625 MiB (88%)
Writing library : x264 core 120
Encoding settings : cabac=1 / ref=3 / deblock=1:0:0 / analyse=0x3:0x133 / me=umh / subme=7 / psy=1 / psy_rd=1.00:0.00 / mixed_ref=1 / me_range=32 / chroma_me=1 / trellis=2 / 8x8dct=1 / cqm=0 / deadzone=21,11 / fast_pskip=1 / chroma_qp_offset=-2 / threads=12 / sliced_threads=0 / nr=0 / decimate=1 / interlaced=0 / bluray_compat=0 / constrained_intra=0 / bframes=0 / weightp=0 / keyint=75 / keyint_min=26 / scenecut=40 / intra_refresh=0 / rc_lookahead=50 / rc=2pass / mbtree=0 / bitrate=1800 / ratetol=1.0 / qcomp=0.20 / qpmin=10 / qpmax=51 / qpstep=4 / cplxblur=20.0 / qblur=0.5 / vbv_maxrate=2000 / vbv_bufsize=2000 / nal_hrd=none / ip_ratio=1.40 / aq=1:1.00
Color primaries : BT.709-5, BT.1361, IEC 61966-2-4, SMPTE RP177
Transfer characteristics : BT.709-5, BT.1361
Matrix coefficients : BT.709-5, BT.1361, IEC 61966-2-4 709, SMPTE RP177
Audio #2
ID : 2
Format : AC-3
Format/Info : Audio Coding 3
Mode extension : CM (complete main)
Codec ID : A_AC3
Duration : 49mn 44s
Bit rate mode : Constant
Bit rate : 192 Kbps
Channel(s) : 2 channels
Channel positions : Front: L R
Sampling rate : 48.0 KHz
Bit depth : 16 bits
Compression mode : Lossy
Stream size : 68.3 MiB (10%)
Language : Russian
Скриншоты
Скачать

Скачать торрент!

Как скачивать? · Что такое торрент? · Рейтинг и ограничения

Сайт не распространяет и не хранит электронные версии произведений, а лишь предоставляет доступ к создаваемому пользователями каталогу ссылок на торрент-файлы, которые содержат только списки хеш-сумм

[Профиль] [ЛС]
Показать сообщения:    
Ответить на тему

Текущее время: Сегодня 00:06

Часовой пояс: GMT + 4



Вы не можете начинать темы
Вы не можете отвечать на сообщения
Вы не можете редактировать свои сообщения
Вы не можете удалять свои сообщения
Вы не можете голосовать в опросах
Вы не можете прикреплять файлы к сообщениям
Вы не можете скачивать файлы