Трудный день / A Hard Day / Kkeut-Kka-Ji-Gan-Da (Ким Сон Хун / Seong-hoon Kim) [2013, Южная Корея, триллер, криминал, боевик, BDRip] DVO [DeadSno & den904] + DVO [Green Tea] + original Kor + Sub (rus, eng)

Ответить на тему
 
Автор Сообщение

user ®

Стаж: 13 лет

Сообщений: 15071

Пост Пост: #1 от 08-Дек-2014 14:00

[Цитировать]

Трудный день / A Hard Day / Kkeut-Kka-Ji-Gan-Da- -Страна: Южная Корея
Жанр: триллер, криминал, боевик
Год выпуска: 2013
Продолжительность: 01:50:52-Перевод: Любительский (двухголосый закадровый) [DeadSno & den904]
Перевод: Любительский (двухголосый закадровый) [Green Tea] - отдельно-Cубтитры: русские, английские [отдельно]
Оригинальная аудиодорожка: корейский
Режиссер: Ким Сон Хун / Seong-hoon Kim
В ролях: Ли Сон Гюн, Чон Ман Сик, Чо Чжин Ун, Шин Дон Ми, Син Чжон Гын...
Описание: В этот день у детектива Гон Су одни неприятности. Похороны матери, служба внутренних расследований проводит обыск в его отделе. В стрессовом состоянии Гон Су сбивает своей машиной человека на шоссе. Спрятав труп в гробу своей покойной матери, офицер полиции надеется перевести дух, но опять появляется проблема - находится свидетель ДТП, который начинает угрожать и требовать что-то странное...
Релиз от -
Сэмпл: http://multi-up.com/1018159
Качество видео: BDRip [исх. [url=http://***/forum/viewtopic.php?t=4883422]BDRemux 1080p[/url]]
Формат видео: AVI
Видео: MPEG-4 Visual at 1912 Кбит/сек; 720 x 304 (2.368) at 23.976 fps
Аудио: AC-3 at 448 Кбит/сек; 6 каналов, 48,0 КГц [DVO]
Аудио: AC-3 at 192 Кбит/сек; 2 канала, 48,0 КГц [DVO] - отдельно
Аудио: AC-3 at 448 Кбит/сек; 6 каналов, 48,0 КГц [Kor]
Автор -
MediaInfo
Общее
Полное имя : D:\Фильмы\Азиатские\Трудный день\A Hard Day.2014.BDRip.XviD.2200MB. rip by [Assassin's Creed]\A Hard Day.2014.BDRip.XviD.2200MB. rip by [Assassin's Creed].avi
Формат : AVI
Формат/Информация : Audio Video Interleave
Профиль формата : OpenDML
Размер файла : 2,19 Гбайт
Продолжительность : 1 ч. 50 м.
Общий поток : 2825 Кбит/сек
Программа кодирования : VirtualDubMod 1.5.10.2 (build 2540/release)
Библиотека кодирования : VirtualDubMod build 2540/release
Видео
Идентификатор : 0
Формат : MPEG-4 Visual
Профиль формата : Advanced Simple@L5
Параметр BVOP формата : 1
Параметр QPel формата : Нет
Параметр GMC формата : Без точки перехода
Параметр матрицы формата : Default (MPEG)
Идентификатор кодека : XVID
Идентификатор кодека/Подсказка : XviD
Продолжительность : 1 ч. 50 м.
Битрейт : 1912 Кбит/сек
Ширина : 720 пикселей
Высота : 304 пикселя
Соотношение сторон : 2,35:1
Частота кадров : 23,976 кадра/сек
Цветовое пространство : YUV
Субдискретизация насыщенности : 4:2:0
Битовая глубина : 8 бит
Тип развёртки : Прогрессивная
Метод сжатия : С потерями
Бит/(Пиксели*Кадры) : 0.364
Размер потока : 1,48 Гбайт (68%)
Библиотека кодирования : XviD 1.2.1 (UTC 2008-12-04)
Аудио #1
Идентификатор : 1
Формат : AC-3
Формат/Информация : Audio Coding 3
Расширение режима : CM (complete main)
Параметр Endianness формата : Big
Идентификатор кодека : 2000
Продолжительность : 1 ч. 50 м.
Вид битрейта : Постоянный
Битрейт : 448 Кбит/сек
Каналы : 6 каналов
Расположение каналов : Front: L C R, Side: L R, LFE
Частота : 48,0 КГц
Битовая глубина : 16 бит
Метод сжатия : С потерями
Размер потока : 355 Мбайт (16%)
Выравнивание : Разделение по промежуткам
Продолжительность промежутка : 42 мс. (1,00 видеокадр)
Время предзагрузки промежутка : 500 мс.
Аудио #2
Идентификатор : 2
Формат : AC-3
Формат/Информация : Audio Coding 3
Расширение режима : CM (complete main)
Параметр Endianness формата : Big
Идентификатор кодека : 2000
Продолжительность : 1 ч. 50 м.
Вид битрейта : Постоянный
Битрейт : 448 Кбит/сек
Каналы : 6 каналов
Расположение каналов : Front: L C R, Side: L R, LFE
Частота : 48,0 КГц
Битовая глубина : 16 бит
Метод сжатия : С потерями
Размер потока : 355 Мбайт (16%)
Выравнивание : Разделение по промежуткам
Продолжительность промежутка : 42 мс. (1,00 видеокадр)
Время предзагрузки промежутка : 500 мс.
Общее
Полное имя : D:\Фильмы\Азиатские\Трудный день\A Hard Day.2014.BDRip.XviD.2200MB. rip by [Assassin's Creed]\A Hard Day.2014.BDRip.XviD.2900MB. rip by [Assassin's Creed].eng.srt
Формат : SubRip
Размер файла : 68,6 Кбайт
Текст
Формат : SubRip
Метод сжатия : Без потерь
Общее
Полное имя : D:\Фильмы\Азиатские\Трудный день\A Hard Day.2014.BDRip.XviD.2200MB. rip by [Assassin's Creed]\A Hard Day.2014.BDRip.XviD.2900MB. rip by [Assassin's Creed].rus.srt
Формат : SubRip
Размер файла : 110 Кбайт
Текст
Формат : SubRip
Метод сжатия : Без потерь
Общее
Полное имя : D:\Фильмы\Азиатские\Трудный день\A Hard Day.2014.BDRip.XviD.2200MB. rip by [Assassin's Creed]\A Hard Day.2014.BDRip.XviD.DVO [Green Tea].2200MB. rip by [Assassin's Creed].ac3
Формат : AC-3
Формат/Информация : Audio Coding 3
Размер файла : 152 Мбайт
Продолжительность : 1 ч. 50 м.
Режим общего битрейта : Постоянный
Общий поток : 192 Кбит/сек
Аудио
Формат : AC-3
Формат/Информация : Audio Coding 3
Расширение режима : CM (complete main)
Параметр Endianness формата : Big
Продолжительность : 1 ч. 50 м.
Вид битрейта : Постоянный
Битрейт : 192 Кбит/сек
Каналы : 2 канала
Расположение каналов : Front: L R
Частота : 48,0 КГц
Битовая глубина : 16 бит
Метод сжатия : С потерями
Размер потока : 152 Мбайт (100%)
Скриншот c названием фильма Скриншоты
Скачать

Скачать торрент! Трудный день / A Hard Day / Kkeut-Kka-Ji-Gan-Da (Ким Сон Хун / Seong-hoon Kim) [2013, Южная Корея, триллер, криминал, боевик, BDRip] DVO [DeadSno & den904] + DVO [Green Tea] + original Kor + Sub (rus, eng)

Как скачивать? · Что такое торрент? · Рейтинг и ограничения

Сайт не распространяет и не хранит электронные версии произведений, а лишь предоставляет доступ к создаваемому пользователями каталогу ссылок на торрент-файлы, которые содержат только списки хеш-сумм

[Профиль] [ЛС]
Показать сообщения:    
Ответить на тему

Текущее время: Сегодня 17:20

Часовой пояс: GMT + 4



Вы не можете начинать темы
Вы не можете отвечать на сообщения
Вы не можете редактировать свои сообщения
Вы не можете удалять свои сообщения
Вы не можете голосовать в опросах
Вы не можете прикреплять файлы к сообщениям
Вы не можете скачивать файлы