Это, блин, рождественское чудо / A Merry Friggin\' Christmas (Тристрам Шапиро / Tristram Shapeero) [2014, США, комедия, HDRip] VO (R.A.I.M)

Ответить на тему
 
Автор Сообщение

user ®

Стаж: 7 лет 7 месяцев

Сообщений: 20008

Пост Пост: #1 от 08-Дек-2014 14:00

[Цитировать]

Это, блин, рождественское чудо / A Merry Friggin' Christmas
«Spend it with the ones you loathe»
Страна: США
Жанр: комедия
Год выпуска: 2014
Продолжительность: 1:21:45
Перевод: Любительский одноголосый закадровый [R.A.I.M]
Cубтитры: нет
Режиссер: Тристрам Шапиро / Tristram Shapeero
Cценарий: Майкл Браун
Продюсеры: Том Райс, Энтони Руссо, Джо Руссо
Композитор: Джон Садофф
В ролях: Джоэл МакХэйл, Лорен Грэм, Кларк Дьюк, Оливер Платт, Венди МакЛендон-Кови, Тим Хайдекер, Кэндис Берген, Робин Уильямс, Мэтт Джонс, Джеффри Тэмбор
Описание: Бойд Митчлер и его жена Луанн решают провести Рождество с отцом Бойда Митчем и его, мягко выражаясь, странноватым семейством. Сообразив, что он забыл дома все подарки, Бойд в компании брата и отца прыгает в машину и пытается совершить невозможное: съездить домой и вернуться обратно до рассвета.
Премьера (мир): 17 октября 2014
Рейтинг MPAA: PG-13
Сэмпл: http://multi-up.com/1018199
Качество видео: HDRip
Формат видео: AVI
Видео: DX50, 688 x 392 (16:9), 23.976 fps, 884 Kbps
Аудио: MPEG Audio Layer 3, 48.0 KHz, 2 ch, 128 Kbps
MediaInfo
General
Полное имя : D:\FFOutput\A.Merry.Friggin.Christmas.2014.HDRip.avi
Формат : AVI
Формат/Информация : Audio Video Interleave
Размер файла : 597 MiB
Продолжительность : 1h 21mn
Общий поток : 1 022 Kbps
Программа кодирования : VirtualDubMod 1.5.10.3 | www.virtualdub-fr.org || (build 2550/release)
Библиотека кодирования : VirtualDubMod build 2550/release
Video
Идентификатор : 0
Формат : MPEG-4 Visual
Профиль формата : Advanced Simple@L5
Параметр BVOP формата : 2
Параметр QPel формата : No
Параметр GMC формата : No warppoints
Параметр матрицы формата : Default (MPEG)
Идентификатор кодека : DX50
Идентификатор кодека/Подсказка : DivX 5
Продолжительность : 1h 21mn
Битрейт : 884 Kbps
Ширина : 688 pixels
Высота : 392 pixels
Соотношение сторон : 16:9
Частота кадров : 23.976 fps
Цветовое пространство : YUV
Субдискретизация насыщенности : 4:2:0
Битовая глубина : 8 bits
Тип развёртки : Progressive
Метод сжатия : Lossy
Бит/(Пиксели*Кадры) : 0.137
Размер потока : 517 MiB (87%)
Библиотека кодирования : XviD 1.2.1 (UTC 2008-12-04)
Audio
Идентификатор : 1
Формат : MPEG Audio
Версия формата : Version 1
Профиль формата : Layer 3
Идентификатор кодека : 55
Идентификатор кодека/Подсказка : MP3
Продолжительность : 1h 21mn
Вид битрейта : Constant
Битрейт : 128 Kbps
Каналы : 2 channels
Частота : 48.0 KHz
Метод сжатия : Lossy
Размер потока : 74.8 MiB (13%)
Выравнивание : Aligned on interleaves
Продолжительность промежутка : 42 ms (1.00 video frame)
Время предзагрузки промежутка : 504 ms
Библиотека кодирования : LAME3.99r
Настройки программы : -m s -V 4 -q 2 -lowpass 17 -b 128
Скриншот c названием фильма Скриншоты
Скачать

Скачать торрент!

Как скачивать? · Что такое торрент? · Рейтинг и ограничения

Сайт не распространяет и не хранит электронные версии произведений, а лишь предоставляет доступ к создаваемому пользователями каталогу ссылок на торрент-файлы, которые содержат только списки хеш-сумм

[Профиль] [ЛС]
Показать сообщения:    
Ответить на тему

Текущее время: Сегодня 01:46

Часовой пояс: GMT + 4



Вы не можете начинать темы
Вы не можете отвечать на сообщения
Вы не можете редактировать свои сообщения
Вы не можете удалять свои сообщения
Вы не можете голосовать в опросах
Вы не можете прикреплять файлы к сообщениям
Вы не можете скачивать файлы