Рантаро - мальчик-ниндзя / Дети-ниндзя / Nintama Rantarou / Ninja Kids! (Такаши Миике / Takashi Miike) [2011, Япония, комедия, детский, приключения, DVDRip] VO (Прошин) + Sub Rus + Orig Jap

Ответить на тему
 
Автор Сообщение

user ®

Стаж: 13 лет

Сообщений: 15071

Пост Пост: #1 от 08-Дек-2014 04:30

[Цитировать]

Рантаро - мальчик-ниндзя / Дети-ниндзя / Nintama Rantarou / Ninja Kids!
Страна: Япония
Жанр: комедия, детский, приключения
Год выпуска: 2011
Продолжительность: 01:39:31
Перевод: Одноголосый закадровый (Вячеслав Прошин)
Cубтитры: русские (Алексей Крылов aka rrrtttsss aka prostotak)
Оригинальная аудиодорожка: японский
Режиссер: Такаши Миике / Takashi Miike
В ролях: Сейширо Като, Шидо Накамура, Наото Такенака, Сусуми Терадзима, Микидзиро Хира, Хироки Мацаката, Рей Дан, Такахиро Миура и др.
Описание: Маленького Рантаро родители отправляют в Школу ниндзя. Там мальчика и его новых друзей ждут необыкновенные приключения.
Полнометражная экранизация одного из самых популярных в Японии мультсериалов, идущего без перерыва с 1993 года.
Совершенно безбашенная комедия с весьма своеобразным японским юмором.
Доп. информация: Информация о фильме на IMDB - http://www.imdb.com/title/tt1644655/
Сэмпл: http://multi-up.com/1018162
Качество видео: DVDRip
Формат видео: AVI
Видео: 720x304 (2.37:1), 23.976 fps, XviD MPEG-4 ~1505 kbps avg, 0.29 bit/pixel
Аудио 1: 48 kHz, AC3 Dolby Digital, 3/2 (L,C,R,l,r) + LFE ch, ~448.00 kbps avg (русский)
Аудио 2: 48 kHz, AC3 Dolby Digital, 3/2 (L,C,R,l,r) + LFE ch, ~448.00 kbps avg (японский)
Формат субтитров: softsub (SRT)
MediaInfo
Общее
Полное имя : H:\SEED\Nintama Rantarou (2011) ru\Nintama Rantarou (2011) ru.avi
Формат : AVI
Формат/Информация : Audio Video Interleave
Размер файла : 1,68 Гбайт
Продолжительность : 1 ч. 39 м.
Общий поток : 2416 Кбит/сек
Программа кодирования : VirtualDubMod 1.5.10.2 (build 2542/release)
Библиотека кодирования : VirtualDubMod build 2542/release
Видео
Идентификатор : 0
Формат : MPEG-4 Visual
Профиль формата : Advanced Simple@L5
Параметр BVOP формата : 2
Параметр QPel формата : Нет
Параметр GMC формата : Без точки перехода
Параметр матрицы формата : Default (H.263)
Режим смешивания : Сжатый битовый поток
Идентификатор кодека : XVID
Идентификатор кодека/Подсказка : XviD
Продолжительность : 1 ч. 39 м.
Битрейт : 1506 Кбит/сек
Ширина : 720 пикселей
Высота : 304 пикселя
Соотношение сторон : 2,40:1
Частота кадров : 23,976 кадра/сек
Цветовое пространство : YUV
Субдискретизация насыщенности : 4:2:0
Битовая глубина : 8 бит
Тип развёртки : Прогрессивная
Метод сжатия : С потерями
Бит/(Пиксели*Кадры) : 0.287
Размер потока : 1,05 Гбайт (62%)
Библиотека кодирования : XviD 64
Аудио #1
Идентификатор : 1
Формат : AC-3
Формат/Информация : Audio Coding 3
Расширение режима : CM (complete main)
Параметр Endianness формата : Big
Идентификатор кодека : 2000
Продолжительность : 1 ч. 39 м.
Вид битрейта : Постоянный
Битрейт : 448 Кбит/сек
Каналы : 6 каналов
Расположение каналов : Front: L C R, Side: L R, LFE
Частота : 48,0 КГц
Битовая глубина : 16 бит
Метод сжатия : С потерями
Размер потока : 319 Мбайт (19%)
Выравнивание : Разделение по промежуткам
Продолжительность промежутка : 42 мс. (1,00 видеокадр)
Время предзагрузки промежутка : 500 мс.
Аудио #2
Идентификатор : 2
Формат : AC-3
Формат/Информация : Audio Coding 3
Расширение режима : CM (complete main)
Параметр Endianness формата : Big
Идентификатор кодека : 2000
Продолжительность : 1 ч. 39 м.
Вид битрейта : Постоянный
Битрейт : 448 Кбит/сек
Каналы : 6 каналов
Расположение каналов : Front: L C R, Side: L R, LFE
Частота : 48,0 КГц
Битовая глубина : 16 бит
Метод сжатия : С потерями
Размер потока : 319 Мбайт (19%)
Выравнивание : Разделение по промежуткам
Продолжительность промежутка : 42 мс. (1,00 видеокадр)
Время предзагрузки промежутка : 500 мс.
Образец субтитров
1
00:00:31,578 --> 00:00:33,739
Папа! Мама!
2
00:00:35,182 --> 00:00:36,501
Я ухожу.
3
00:00:39,519 --> 00:00:44,434
Рантаро, не забывай, зачем
ты отправляешься в Школу ниндзя.
4
00:00:44,558 --> 00:00:46,048
Ты помнишь, зачем?
5
00:00:46,126 --> 00:00:47,241
Да.
6
00:00:47,427 --> 00:00:51,921
Наша семья уже много поколений
принадлежит к низшему сословию ниндзя.
7
00:00:52,265 --> 00:00:56,850
Ни твой отец, ни дед,
ни прадед...
8
00:00:57,104 --> 00:01:00,642
никто не смог добиться
чести и славы.
9
00:01:01,241 --> 00:01:03,937
Учись как следует
10
00:01:04,344 --> 00:01:08,007
и стань самым лучшим ниндзя!
11
00:01:08,115 --> 00:01:10,231
Да, я постараюсь!
12
00:01:11,084 --> 00:01:12,745
Как бы тебе ни было тяжело,
13
00:01:13,286 --> 00:01:16,949
ты не сможешь вернуться домой
до летних каникул.
14
00:01:21,061 --> 00:01:22,096
Да.
15
00:01:25,298 --> 00:01:26,868
Ну, я пошел.
16
00:01:53,493 --> 00:01:54,983
Рантаро...
17
00:01:55,996 --> 00:01:59,488
Пожалуйста,
береги себя!
18
00:02:13,046 --> 00:02:15,867
Рантаро! Удачи!
19
00:02:16,149 --> 00:02:18,561
Да-а-а!
20
00:04:20,974 --> 00:04:27,891
ШКОЛА НИНДЗЯ
Скриншот c названием фильма Скриншоты Внимание! Торрент перезалит 7.12.2014 в связи с добавлением русской озвучки. Под озвучку перевод был сделан заново, файл субтитров также обновлен.
Скачать

Скачать торрент! Рантаро - мальчик-ниндзя / Дети-ниндзя / Nintama Rantarou / Ninja Kids! (Такаши Миике / Takashi Miike) [2011, Япония, комедия, детский, приключения, DVDRip] VO (Прошин) + Sub Rus + Orig Jap

Как скачивать? · Что такое торрент? · Рейтинг и ограничения

Сайт не распространяет и не хранит электронные версии произведений, а лишь предоставляет доступ к создаваемому пользователями каталогу ссылок на торрент-файлы, которые содержат только списки хеш-сумм

[Профиль] [ЛС]
Показать сообщения:    
Ответить на тему

Текущее время: Сегодня 16:49

Часовой пояс: GMT + 4



Вы не можете начинать темы
Вы не можете отвечать на сообщения
Вы не можете редактировать свои сообщения
Вы не можете удалять свои сообщения
Вы не можете голосовать в опросах
Вы не можете прикреплять файлы к сообщениям
Вы не можете скачивать файлы