Самый опасный человек / A Most Wanted Man (Антон Корбейн / Anton Corbijn) [2014, Великобритания, США, Германия, триллер, BDRip 1080p] Dub + Sub Eng + Original Eng

Ответить на тему
 
Автор Сообщение

user ®

Стаж: 7 лет 7 месяцев

Сообщений: 20008

Пост Пост: #1 от 08-Дек-2014 04:30

[Цитировать]

Самый опасный человек / A Most Wanted Man
Страна: Великобритания, США, Германия
Студия: Ink Factory, The, Potboiler Productions, Amusement Park Films
Жанр: триллер
Год выпуска: 2014
Продолжительность: 02:02:23
Перевод: Профессиональный (дублированный)R5
Cубтитры: английские(full,SDH,SDH Colored)
Оригинальная аудиодорожка: английский
Режиссер: Антон Корбейн / Anton Corbijn
В ролях: Филип Сеймур Хоффман, Рэйчел МакАдамс, Уиллем Дефо, Робин Райт, Григорий Добрыгин, Хомаюн Эршади, Мехди Дехби, Нил Малик Абдулла, Нина Хосс, Даниэль Брюль
Описание: Каждая война начинается со страха. Каждое предательство начинается с доверия. Глава секретного подразделения разведки получает задание найти опасного международного беглеца Ису Карпова, которого из симпатии укрывает молодая девушка-адвокат. Когда в погоню вступают разведки других стран, начинается большая шпионская игра, в которой любой может оказаться наживкой или акулой. А национальная безопасность нередко зависит от простых человеческих чувств.

Тип релиза: BDRip 1080p[VietHD]
Контейнер: MKV
Видео: AVC, 1920x816, 12800 kbps, 23.976 fps
Аудио 1: Russian: 48 kHz, AC3, 3/2 (L,C,R,l,r) + LFE ch, 448.00 kbps |R5|
Аудио 2: English: 48 kHz, DTS, 3/2 (L,C,R,l,r) + LFE ch, ~1536.00 kbps avg |Original|
Чаптеры:есть

MediaInfo
General
Unique ID : 170987374051621410928010382660311057019 (0x80A2F86ACFC5DE418F715A18176A027B)
Complete name : D:\рипы\A.Most.Wanted.Man.2014.1080p.BluRay.DTS.x264-Talian-.mkv
Format : Matroska
Format version : Version 2
File size : 12.1 GiB
Duration : 2h 2mn
Overall bit rate : 14.2 Mbps
Movie name : A.Most.Wanted.Man-Talian-
Encoded date : UTC 2014-12-04 20:24:23
Writing application : mkvmerge v5.7.0 ('The Whirlwind') built on Jul 8 2012 20:08:51
Writing library : libebml v1.2.3 + libmatroska v1.3.0
Video
ID : 1
Format : AVC
Format/Info : Advanced Video Codec
Format profile : High@L4.1
Format settings, CABAC : Yes
Format settings, ReFrames : 5 frames
Codec ID : V_MPEG4/ISO/AVC
Duration : 2h 2mn
Bit rate : 11.9 Mbps
Width : 1 920 pixels
Height : 816 pixels
Display aspect ratio : 2.35:1
Frame rate : 23.976 fps
Color space : YUV
Chroma subsampling : 4:2:0
Bit depth : 8 bits
Scan type : Progressive
Bits/(Pixel*Frame) : 0.318
Stream size : 10.2 GiB (84%)
Title : VietHD
Writing library : x264 core 142 r2431+42 c69a006 tMod [8-bit@all X86_64]
Encoding settings : cabac=1 / ref=5 / deblock=1:-3:-3 / analyse=0x3:0x133 / me=umh / subme=10 / psy=1 / fade_compensate=0.00 / psy_rd=0.95:0.00 / mixed_ref=1 / me_range=24 / chroma_me=1 / trellis=2 / 8x8dct=1 / cqm=0 / deadzone=21,11 / fast_pskip=1 / chroma_qp_offset=-2 / threads=12 / lookahead_threads=2 / sliced_threads=0 / nr=0 / decimate=1 / interlaced=0 / bluray_compat=0 / constrained_intra=0 / fgo=0 / bframes=9 / b_pyramid=2 / b_adapt=2 / b_bias=0 / direct=3 / weightb=1 / open_gop=0 / weightp=2 / keyint=250 / keyint_min=23 / scenecut=40 / intra_refresh=0 / rc=crf / mbtree=0 / crf=17.4000 / qcomp=0.65 / qpmin=0:0:0 / qpmax=69:69:69 / qpstep=4 / ip_ratio=1.30 / pb_ratio=1.20 / aq=4:0.85 / aq-sensitivity=10.00 / aq-factor=1.00:1.00:1.00 / aq2=0 / aq3=0
Language : English
Default : Yes
Forced : No
Matrix coefficients : BT.709-5, BT.1361, IEC 61966-2-4 709, SMPTE RP177
Audio #1
ID : 2
Format : AC-3
Format/Info : Audio Coding 3
Mode extension : CM (complete main)
Format settings, Endianness : Big
Codec ID : A_AC3
Duration : 2h 2mn
Bit rate mode : Constant
Bit rate : 448 Kbps
Channel(s) : 6 channels
Channel positions : Front: L C R, Side: L R, LFE
Sampling rate : 48.0 KHz
Bit depth : 16 bits
Compression mode : Lossy
Stream size : 392 MiB (3%)
Title : DUB-R5
Language : Russian
Default : Yes
Forced : No
Audio #2
ID : 3
Format : DTS
Format/Info : Digital Theater Systems
Codec ID : A_DTS
Duration : 2h 2mn
Bit rate mode : Constant
Bit rate : 1 510 Kbps
Channel(s) : 6 channels
Channel positions : Front: L C R, Side: L R, LFE
Sampling rate : 48.0 KHz
Bit depth : 24 bits
Compression mode : Lossy
Stream size : 1.29 GiB (11%)
Title : Original
Language : English
Default : No
Forced : No
Text #1
ID : 4
Format : UTF-8
Codec ID : S_TEXT/UTF8
Codec ID/Info : UTF-8 Plain Text
Title : Sub-full
Language : English
Default : No
Forced : No
Text #2
ID : 5
Format : UTF-8
Codec ID : S_TEXT/UTF8
Codec ID/Info : UTF-8 Plain Text
Title : Sub-SDH
Language : English
Default : No
Forced : No
Text #3
ID : 6
Format : UTF-8
Codec ID : S_TEXT/UTF8
Codec ID/Info : UTF-8 Plain Text
Title : Sub-SDH Colored
Language : English
Default : No
Forced : No
Menu
00:00:00.000 : en:00:00:00.000
00:08:26.256 : en:00:08:26.256
00:15:38.771 : en:00:15:38.771
00:24:58.872 : en:00:24:58.872
00:30:40.047 : en:00:30:40.047
00:37:54.147 : en:00:37:54.147
00:47:22.381 : en:00:47:22.381
00:52:45.079 : en:00:52:45.079
01:02:10.602 : en:01:02:10.602
01:09:44.430 : en:01:09:44.430
01:16:51.816 : en:01:16:51.816
01:25:22.826 : en:01:25:22.826
01:32:06.229 : en:01:32:06.229
01:40:02.914 : en:01:40:02.914
01:49:38.322 : en:01:49:38.322
01:55:53.029 : en:01:55:53.029
Скриншоты
Source vs Encode


Скачать

Скачать торрент!

Как скачивать? · Что такое торрент? · Рейтинг и ограничения

Сайт не распространяет и не хранит электронные версии произведений, а лишь предоставляет доступ к создаваемому пользователями каталогу ссылок на торрент-файлы, которые содержат только списки хеш-сумм

[Профиль] [ЛС]
Показать сообщения:    
Ответить на тему

Текущее время: Сегодня 13:35

Часовой пояс: GMT + 4



Вы не можете начинать темы
Вы не можете отвечать на сообщения
Вы не можете редактировать свои сообщения
Вы не можете удалять свои сообщения
Вы не можете голосовать в опросах
Вы не можете прикреплять файлы к сообщениям
Вы не можете скачивать файлы