Обитель проклятых / Eliza Graves / Stonehearst Asylum (Брэд Андерсон / Brad Anderson) [2014, США, Триллер, Драма, BDRip 720p] Dub + Sub Eng + Original Eng

Ответить на тему
 
Автор Сообщение

user ®

Стаж: 7 лет 7 месяцев

Сообщений: 20008

Пост Пост: #1 от 08-Дек-2014 04:30

[Цитировать]

Обитель проклятых / Eliza Graves / Stonehearst Asylum
Страна: Icon Productions, Sobini Films / США
Жанр: Триллер, Драма
Год выпуска: 2014
Продолжительность: 01:52:40
Перевод: Профессиональный (дублированный)
Cубтитры: английские
Оригинальная аудиодорожка: английский
Режиссер: Брэд Андерсон / Brad Anderson
В ролях: Кейт Бекинсейл (Eliza Graves), Джим Стёрджесс (Edward Newgate), Бен Кингсли (Silas Lamb), Дэвид Тьюлис (Mickey Finn), Майкл Кейн (Dr. Salt), Брендан Глисон (The Alienist), Джейсон Флеминг (Swanwick), Софи Кеннеди Кларк (Millie), Шинед Кьюсак (Mrs. Pike), Гийом Делони (Arthur Timbs), Эдмунд Кингсли (Charles Graves), Кристофер Фулфорд (Paxton), ...
Описание: По мотивам произведения Эдгара Аллана По «Система доктора Смоля и профессора Перро». Действие фильма разворачивается в конце XIX века. Молодой психиатр прибывает в психиатрическую больницу Стоунхёрст, в которой лечатся исключительно пациенты благородных кровей, для получения практического опыта. Представившись доктором Эдвардом Ньюгейтом из Оксфорда психиатр знакомится с немного странным персоналом больницы. И с первого дня пребывания доктор располагает к себе весьма привлекательную Элизу Грейвс, кажущуюся ему нормальной пациентку, которая откусила ухо и выколола глаз мужу. Спустя несколько дней Эдвард натыкается в подземелье на заключённых, утверждающих, что они все и есть настоящий обслуживающий персонал, в то время как находящиеся наверху люди - сумасшедшие все до единого, сумевшие свергнуть их и запереть в подвале в клетках. Доктор Бенджамин Солт, законный директор учреждения, просит Эдварда съездить в город за помощью либо вынудить самозванца-директора Сайлоса Лэмба проявить своё истинное лицо, чтобы вернуть всё как было. Но всё ли так просто, как кажется?

Тип релиза: BDRip 720p
Контейнер: MKV
Видео: MPEG-4 AVC, 6356 Кбит/с, 1280x534, 23,976 fps
Аудио: Rus, AC3, 640 kb/s (6 ch), 48 kHz
Аудио 2: Eng, AC3, 448 kb/s (6 ch), 48 kHz
Формат субтитров: softsub (SRT)
MediaInfo
Format : Matroska
Format version : Version 4 / Version 2
File size : 5.97 GiB
Duration : 1h 52mn
Overall bit rate : 7 582 Kbps
Movie name : Tonik
Encoded date : UTC 2014-12-05 17:29:12
Writing application : mkvmerge v7.1.0 ('Good Love') 64bit built on Jul 27 2014 13:06:55
Writing library : libebml v1.3.0 + libmatroska v1.4.1
_STATISTICS_WRITING_APP : mkvmerge v7.1.0 ('Good Love') 64bit built on Jul 27 2014 13:06:55
_STATISTICS_WRITING_DATE_UTC : 2014-12-05 17:29:12
_STATISTICS_TAGS : BPS DURATION NUMBER_OF_FRAMES NUMBER_OF_BYTES
DURATION : 01:52:40.064000000
NUMBER_OF_FRAMES : 211252
NUMBER_OF_BYTES : 540805120
Video
ID : 1
Format : AVC
Format/Info : Advanced Video Codec
Format profile : High@L4.1
Format settings, CABAC : Yes
Format settings, ReFrames : 12 frames
Codec ID : V_MPEG4/ISO/AVC
Bit rate : 6 343 Kbps
Width : 1 280 pixels
Height : 534 pixels
Display aspect ratio : 2.40:1
Frame rate mode : Variable
Original frame rate : 23.976 fps
Color space : YUV
Chroma subsampling : 4:2:0
Bit depth : 8 bits
Scan type : Progressive
Writing library : x264 core 142 r2479 dd79a61
Encoding settings : cabac=1 / ref=12 / deblock=1:-3:-3 / analyse=0x3:0x133 / me=umh / subme=10 / psy=1 / psy_rd=1.03:0.00 / mixed_ref=1 / me_range=48 / chroma_me=1 / trellis=2 / 8x8dct=1 / cqm=0 / deadzone=21,11 / fast_pskip=1 / chroma_qp_offset=-2 / threads=16 / lookahead_threads=2 / sliced_threads=0 / nr=0 / decimate=1 / interlaced=0 / bluray_compat=0 / constrained_intra=0 / bframes=9 / b_pyramid=2 / b_adapt=2 / b_bias=0 / direct=3 / weightb=1 / open_gop=0 / weightp=2 / keyint=250 / keyint_min=23 / scenecut=40 / intra_refresh=0 / rc_lookahead=150 / rc=crf / mbtree=0 / crf=16.0 / qcomp=0.80 / qpmin=0 / qpmax=69 / qpstep=4 / vbv_maxrate=50000 / vbv_bufsize=62500 / crf_max=0.0 / nal_hrd=none / filler=0 / ip_ratio=1.10 / pb_ratio=1.10 / aq=1:0.65
Language : English
Default : Yes
Forced : No
_STATISTICS_WRITING_APP : mkvmerge v7.1.0 ('Good Love') 64bit built on Jul 27 2014 13:06:55
_STATISTICS_WRITING_DATE_UTC : 2014-12-05 17:29:12
_STATISTICS_TAGS : BPS DURATION NUMBER_OF_FRAMES NUMBER_OF_BYTES
DURATION : 01:52:40.254000000
NUMBER_OF_FRAMES : 162084
NUMBER_OF_BYTES : 5485721399
Audio #1
ID : 2
Format : AC-3
Format/Info : Audio Coding 3
Mode extension : CM (complete main)
Format settings, Endianness : Big
Codec ID : A_AC3
Duration : 1h 52mn
Bit rate mode : Constant
Bit rate : 640 Kbps
Channel(s) : 6 channels
Channel positions : Front: L C R, Side: L R, LFE
Sampling rate : 48.0 KHz
Bit depth : 16 bits
Compression mode : Lossy
Stream size : 516 MiB (8%)
Language : Russian
Default : Yes
Forced : No
Audio #2
ID : 3
Format : AC-3
Format/Info : Audio Coding 3
Mode extension : CM (complete main)
Format settings, Endianness : Big
Codec ID : A_AC3
Duration : 1h 52mn
Bit rate mode : Constant
Bit rate : 448 Kbps
Channel(s) : 6 channels
Channel positions : Front: L C R, Side: L R, LFE
Sampling rate : 48.0 KHz
Bit depth : 16 bits
Compression mode : Lossy
Stream size : 361 MiB (6%)
Language : English
Default : No
Forced : No
Text
ID : 4
Format : UTF-8
Codec ID : S_TEXT/UTF8
Codec ID/Info : UTF-8 Plain Text
Language : English
Default : No
Forced : No
Menu
00:00:00.000 : en:00:00:00.000
00:09:14.888 : en:00:09:14.888
00:17:51.362 : en:00:17:51.362
00:27:37.906 : en:00:27:37.906
00:37:54.731 : en:00:37:54.731
00:45:40.696 : en:00:45:40.696
00:54:59.922 : en:00:54:59.922
01:03:44.029 : en:01:03:44.029
01:12:48.406 : en:01:12:48.406
01:22:12.427 : en:01:22:12.427
01:30:24.252 : en:01:30:24.252
01:48:23.122 : en:01:48:23.122
Скриншоты
Скачать

Скачать торрент!

Как скачивать? · Что такое торрент? · Рейтинг и ограничения

Сайт не распространяет и не хранит электронные версии произведений, а лишь предоставляет доступ к создаваемому пользователями каталогу ссылок на торрент-файлы, которые содержат только списки хеш-сумм

[Профиль] [ЛС]
Показать сообщения:    
Ответить на тему

Текущее время: Сегодня 20:00

Часовой пояс: GMT + 4



Вы не можете начинать темы
Вы не можете отвечать на сообщения
Вы не можете редактировать свои сообщения
Вы не можете удалять свои сообщения
Вы не можете голосовать в опросах
Вы не можете прикреплять файлы к сообщениям
Вы не можете скачивать файлы