Дальше живите сами / This Is Where I Leave You (Шон Леви / Shawn Levy) [2014, США, драма, комедия, BDRip 720p] MVO + Sub Rus, Eng + Original Eng

Ответить на тему
 
Автор Сообщение

user ®

Стаж: 7 лет 7 месяцев

Сообщений: 20008

Пост Пост: #1 от 08-Дек-2014 04:30

[Цитировать]

Дальше живите сами / This Is Where I Leave You
Страна: США
Жанр: драма, комедия
Год выпуска: 2014
Продолжительность: 01:43:19
Перевод: Профессиональный (многоголосый)
Cубтитры: Rus, Eng
Оригинальная аудиодорожка: английский
Режиссер: Шон Леви / Shawn Levy
В ролях: Джейсон Бейтман, Тина Фей, Адам Драйвер, Роуз Бирн, Кори Столл, Кэтрин Хан, Конни Бриттон, Тимоти Олифант, Дэкс Шепард, Джейн Фонда
Описание: Еврейская семья, которая не особо привыкла соблюдать традиции своей веры, вынуждена выполнить последнее желание своего отца — им нужно будет провести вместе период траура, целую неделю, и решить свои проблемы.

Тип релиза: BDRip 720p
Контейнер: MKV
Видео: MPEG-4 AVC, 6733 Kбит/с, 1280x534, 23,976 fps
Аудио: Rus, AC3, 384 kb/s (6 ch), 48 kHz
Аудио 2: Eng, DTS, 1510 kb/s (6 ch), 48 kHz
Формат субтитров: softsub (SRT)
x264 INFO
x264 : frame I:1699 Avg QP:15.44 size:103325
x264 : frame P:29668 Avg QP:16.57 size: 53532
x264 : frame B:117250 Avg QP:16.93 size: 30587
x264 : consecutive B-frames: 1.8% 1.5% 3.9% 22.0% 18.3% 33.4% 9.7% 6.6% 2.0% 0.8%
MediaInfo
Format : Matroska
Format version : Version 4 / Version 2
File size : 6.35 GiB
Duration : 1h 43mn
Overall bit rate : 8 801 Kbps
Movie name : Tonik
Encoded date : UTC 2014-12-06 17:15:34
Writing application : mkvmerge v7.1.0 ('Good Love') 64bit built on Jul 27 2014 13:06:55
Writing library : libebml v1.3.0 + libmatroska v1.4.1
_STATISTICS_WRITING_APP : mkvmerge v7.1.0 ('Good Love') 64bit built on Jul 27 2014 13:06:55
_STATISTICS_WRITING_DATE_UTC : 2014-12-06 17:15:34
_STATISTICS_TAGS : BPS DURATION NUMBER_OF_FRAMES NUMBER_OF_BYTES
DURATION : 01:42:23.596000000
NUMBER_OF_FRAMES : 1759
NUMBER_OF_BYTES : 70530
Video
ID : 1
Format : AVC
Format/Info : Advanced Video Codec
Format profile : High@L4.1
Format settings, CABAC : Yes
Format settings, ReFrames : 12 frames
Codec ID : V_MPEG4/ISO/AVC
Duration : 1h 43mn
Bit rate : 6 733 Kbps
Width : 1 280 pixels
Height : 534 pixels
Display aspect ratio : 2.40:1
Frame rate mode : Constant
Frame rate : 23.976 fps
Color space : YUV
Chroma subsampling : 4:2:0
Bit depth : 8 bits
Scan type : Progressive
Bits/(Pixel*Frame) : 0.411
Stream size : 4.86 GiB (77%)
Writing library : x264 core 142 r2431kMod ac76440
Encoding settings : cabac=1 / ref=12 / deblock=1:-3:-3 / analyse=0x3:0x133 / me=umh / subme=10 / psy=1 / fade_compensate=0.00 / psy_rd=1.00:0.00 / mixed_ref=1 / me_range=24 / chroma_me=1 / trellis=2 / 8x8dct=1 / cqm=0 / deadzone=21,11 / fast_pskip=0 / chroma_qp_offset=-2 / threads=18 / lookahead_threads=3 / sliced_threads=0 / nr=0 / decimate=0 / interlaced=0 / bluray_compat=0 / constrained_intra=0 / fgo=0 / bframes=9 / b_pyramid=2 / b_adapt=2 / b_bias=0 / direct=3 / weightb=1 / open_gop=0 / weightp=2 / keyint=250 / keyint_min=23 / scenecut=40 / intra_refresh=0 / rc=crf / mbtree=0 / crf=17.2000 / qcomp=0.70 / qpmin=0 / qpmax=69 / qpstep=4 / ip_ratio=1.20 / pb_ratio=1.10 / aq=3:0.85
Language : English
Default : Yes
Forced : No
DURATION : 01:43:18.568000000
NUMBER_OF_FRAMES : 148617
NUMBER_OF_BYTES : 5349996263
_STATISTICS_WRITING_APP : mkvmerge v7.1.0 ('Good Love') 64bit built on Jul 27 2014 13:06:55
_STATISTICS_WRITING_DATE_UTC : 2014-12-06 17:15:34
_STATISTICS_TAGS : BPS DURATION NUMBER_OF_FRAMES NUMBER_OF_BYTES
Audio #1
ID : 2
Format : AC-3
Format/Info : Audio Coding 3
Mode extension : CM (complete main)
Format settings, Endianness : Big
Codec ID : A_AC3
Duration : 1h 43mn
Bit rate mode : Constant
Bit rate : 384 Kbps
Channel(s) : 6 channels
Channel positions : Front: L C R, Side: L R, LFE
Sampling rate : 48.0 KHz
Bit depth : 16 bits
Compression mode : Lossy
Stream size : 284 MiB (4%)
Language : Russian
Default : Yes
Forced : No
Audio #2
ID : 3
Format : DTS
Format/Info : Digital Theater Systems
Mode : 16
Format settings, Endianness : Big
Codec ID : A_DTS
Duration : 1h 43mn
Bit rate mode : Constant
Bit rate : 1 509 Kbps
Channel(s) : 6 channels
Channel positions : Front: L C R, Side: L R, LFE
Sampling rate : 48.0 KHz
Bit depth : 24 bits
Compression mode : Lossy
Stream size : 1.09 GiB (17%)
Language : English
Default : No
Forced : No
Text #1
ID : 4
Format : UTF-8
Codec ID : S_TEXT/UTF8
Codec ID/Info : UTF-8 Plain Text
Language : Russian
Default : No
Forced : No
Text #2
ID : 5
Format : UTF-8
Codec ID : S_TEXT/UTF8
Codec ID/Info : UTF-8 Plain Text
Language : English
Default : No
Forced : No
Menu
00:00:00.000 : en:00:00:00.000
00:09:09.716 : en:00:09:09.716
00:21:54.605 : en:00:21:54.605
00:30:50.348 : en:00:30:50.348
00:39:28.866 : en:00:39:28.866
00:50:38.244 : en:00:50:38.244
01:01:14.254 : en:01:01:14.254
01:09:18.321 : en:01:09:18.321
01:20:55.434 : en:01:20:55.434
01:29:12.514 : en:01:29:12.514
01:40:07.335 : en:01:40:07.335
Скриншоты
Скачать

Скачать торрент!

Как скачивать? · Что такое торрент? · Рейтинг и ограничения

Сайт не распространяет и не хранит электронные версии произведений, а лишь предоставляет доступ к создаваемому пользователями каталогу ссылок на торрент-файлы, которые содержат только списки хеш-сумм

[Профиль] [ЛС]
Показать сообщения:    
Ответить на тему

Текущее время: Сегодня 00:10

Часовой пояс: GMT + 4



Вы не можете начинать темы
Вы не можете отвечать на сообщения
Вы не можете редактировать свои сообщения
Вы не можете удалять свои сообщения
Вы не можете голосовать в опросах
Вы не можете прикреплять файлы к сообщениям
Вы не можете скачивать файлы