Другой берег (Владимир Басов мл., Ольга Басова) [2014, Россия, драма, HDTVRip-AVC]

Ответить на тему
 
Автор Сообщение

user ®

Стаж: 7 лет 7 месяцев

Сообщений: 20008

Пост Пост: #1 от 08-Дек-2014 04:30

[Цитировать]

Другой берег


Страна: Россия
Жанр: драма
Год выпуска: 2014
Продолжительность: 01:35:47
Перевод: Не требуется (русский)
Cубтитры: Нет
Режиссер:
Владимир Басов мл., Ольга Басова
В ролях:
Леонид Архангельский, Мария Аниканова, Егор Баринов, Андрей Казаков, Полина Филоненко, Анна Скиданова, Никита Пикалов
Описание:
Блистательная Ксения Конюхова, выпускница консерватории и МГИМО, отзывается от карьеры дипломата и возвращается в родной городок из-за болезни отца. Там ее жизнь круто изменяется: она начинает свой бизнес, выходит замуж и становится одной из самых преуспевающих женщин. У нее есть все: семья, верная подруга, большой дом, деньги. Ксении завидуют. Многим кажется, что она рождена для счастья, везения и радостей. Всё эти иллюзии разрушаются в самый неподходящий момент: на свадьбе ее дочери. Ксения исчезает…

Релиз:
Автор рипа: Stalker oK
Сэмпл: multi-up
Качество видео: HDTVRip-AVC [HDTV 1080i]
Формат видео: MKV
Видео кодек: AVC
Аудио кодек: AC3
Видео: 1990 Кбит/сек, 1026*576 (16:9), в 25,000 кадр/сек, AVC
Аудио: Russian, 192 Кбит/сек, 48,0 КГц, 16 бит, 2 канала(ов), AC-3

MediaInfo
Общее
Уникальный идентификатор : 239633225194426510025189768930686856779 (0xB447AE2F2A9F584B8DF721B51C82EE4B)
Полное имя : G:\для рипов\Другой берег (2014) HDTV 1080i\Drugoy.bereg.2014.HDTVRip-AVC.1.45Gb...stalkerok.new-team.mkv
Формат : Matroska
Размер файла : 1,46 Гбайт
Продолжительность : 1 ч. 35 м.
Общий поток : 2184 Кбит/сек
Название фильма : Другой берег, 2014 (New-Team) (Rip by Stalker oK)
Дата кодирования : UTC 2014-12-07 21:12:37
Программа кодирования : mkvmerge v6.1.0 ('Old Devil') built on Mar 4 2013 09:10:42
Библиотека кодирования : libebml v1.3.0 + libmatroska v1.4.0
Видео
Идентификатор : 1
Формат : AVC
Формат/Информация : Advanced Video Codec
Профиль формата : High@L4.1
Параметр CABAC формата : Да
Параметр ReFrames формата : 12 кадры
Идентификатор кодека : V_MPEG4/ISO/AVC
Продолжительность : 1 ч. 35 м.
Битрейт : 1990 Кбит/сек
Ширина : 1026 пикс.
Высота : 576 пикс.
Соотношение сторон : 16:9
Частота кадров : 25,000 кадр/сек
Цветовое пространство : YUV
Подвыборка цветности : 4:2:0
Битовая глубина : 8 бит
Тип развёртки : Прогрессивная
Бит/(Пиксели*Кадры) : 0.135
Размер потока : 1,30 Гбайт (89%)
Библиотека кодирования : x264 core 142 r2491kMod 24e4fed
Настройки программы : cabac=1 / ref=12 / deblock=1:-3:-2 / analyse=0x3:0x133 / me=umh / subme=11 / psy=1 / fade_compensate=0.00 / psy_rd=1.00:0.06 / mixed_ref=1 / me_range=32 / chroma_me=1 / trellis=2 / 8x8dct=1 / cqm=0 / deadzone=21,11 / fast_pskip=0 / chroma_qp_offset=-3 / threads=12 / lookahead_threads=3 / sliced_threads=0 / nr=0 / decimate=0 / interlaced=0 / bluray_compat=0 / constrained_intra=0 / fgo=0 / bframes=14 / b_pyramid=2 / b_adapt=2 / b_bias=0 / direct=3 / weightb=1 / open_gop=0 / weightp=2 / keyint=250 / keyint_min=25 / scenecut=40 / intra_refresh=0 / rc_lookahead=60 / rc=2pass / mbtree=0 / bitrate=1990 / ratetol=1.0 / qcomp=0.65 / qpmin=0 / qpmax=69 / qpstep=4 / cplxblur=20.0 / qblur=0.5 / vbv_maxrate=50000 / vbv_bufsize=62500 / nal_hrd=none / filler=0 / ip_ratio=1.40 / pb_ratio=1.30 / aq=3:0.95
Аудио
Идентификатор : 2
Формат : AC-3
Формат/Информация : Audio Coding 3
Расширение режима : CM (complete main)
Идентификатор кодека : A_AC3
Продолжительность : 1 ч. 35 м.
Вид битрейта : Постоянный
Битрейт : 192 Кбит/сек
Канал(ы) : 2 канала(ов)
Расположение каналов : Front: L R
Частота : 48,0 КГц
Битовая глубина : 16 бит
Метод сжатия : С потерями
Размер потока : 132 Мбайт (9%)
Язык : Russian
Скриншоты
Скачать

Скачать торрент!

Как скачивать? · Что такое торрент? · Рейтинг и ограничения

Сайт не распространяет и не хранит электронные версии произведений, а лишь предоставляет доступ к создаваемому пользователями каталогу ссылок на торрент-файлы, которые содержат только списки хеш-сумм

[Профиль] [ЛС]
Показать сообщения:    
Ответить на тему

Текущее время: Сегодня 22:41

Часовой пояс: GMT + 4



Вы не можете начинать темы
Вы не можете отвечать на сообщения
Вы не можете редактировать свои сообщения
Вы не можете удалять свои сообщения
Вы не можете голосовать в опросах
Вы не можете прикреплять файлы к сообщениям
Вы не можете скачивать файлы