Париж: Город мёртвых / As Above, So Below (Джон Эрик Даудл / John Erick Dowdle) [2014, США, ужасы, триллер, BDRip] Dub

Ответить на тему
 
Автор Сообщение

user ®

Стаж: 7 лет 7 месяцев

Сообщений: 20008

Пост Пост: #1 от 07-Дек-2014 18:10

[Цитировать]

Париж: Город мёртвых / As Above, So Below-«Увидеть Париж и умереть»- Страна: США
Жанр: ужасы, триллер
Год выпуска: 2014
Продолжительность: 01:33:08
Перевод: Профессиональный (дублированный) - | iTunes |
Cубтитры: нет
Оригинальная аудиодорожка: нет-Режиссер: Джон Эрик Даудл / John Erick Dowdle-В ролях: Пердита Викс, Бен Фельдман, Эдвин Ходж, Франсуа Сивиль, Мэрион Ламберт, Али Мархьяр, Косме Кастро, Хамид Джавадан, Тео Чолби, Эми Леви...-Описание: Величие Эйфелевой башни и роскошь бутиков, ароматы изысканной кухни и краски Елисейских полей — это лишь саван, под которым скрывается настоящий Париж. Здесь, в бесконечных катакомбах живут истинные владыки этого мира.-Автор рипа: _Flash- -Качество видео: BDRip | As.Above.So.Below.2014.1080p.BluRay.Remux.ExKinoRay |
Формат видео: AVI
Видео: 704x384, 23.976 fps, XviD build 73 ~1853 kbps avg, 0.290 bit/pixel
Аудио: 48 kHz, AC3 Dolby Digital, 3/2 (L,C,R,l,r) + LFE ch, ~384.00 kbps
-Дополнительно о фильме:
Производство, студия дубляжа, прокат:
MediaInfo
General
Complete name : As.Above.So.Below.BDRip.By_Flash.avi
Format : AVI
Format/Info : Audio Video Interleave
File size : 1.46 GiB
Duration : 1h 33mn
Overall bit rate : 2 246 Kbps
Writing application : VirtualDubMod 1.5.10.3 | www.virtualdub-fr.org || (build 2550/release)
Writing library : VirtualDubMod build 2550/release
Video
ID : 0
Format : MPEG-4 Visual
Format profile : Advanced Simple@L5
Format settings, BVOP : 1
Format settings, QPel : No
Format settings, GMC : No warppoints
Format settings, Matrix : Custom
Codec ID : XVID
Codec ID/Hint : XviD
Duration : 1h 33mn
Bit rate : 1 853 Kbps
Width : 704 pixels
Height : 384 pixels
Display aspect ratio : 1.85:1
Frame rate : 23.976 fps
Color space : YUV
Chroma subsampling : 4:2:0
Bit depth : 8 bits
Scan type : Progressive
Compression mode : Lossy
Bits/(Pixel*Frame) : 0.286
Stream size : 1.21 GiB (83%)
Writing library : XviD 73
Audio
ID : 1
Format : AC-3
Format/Info : Audio Coding 3
Mode extension : CM (complete main)
Format settings, Endianness : Big
Codec ID : 2000
Duration : 1h 33mn
Bit rate mode : Constant
Bit rate : 384 Kbps
Channel(s) : 6 channels
Channel positions : Front: L C R, Side: L R, LFE
Sampling rate : 48.0 KHz
Bit depth : 16 bits
Compression mode : Lossy
Stream size : 256 MiB (17%)
Alignment : Split accross interleaves
Interleave, duration : 42 ms (1.00 video frame)
Interleave, preload duration : 500 ms
Скриншот c названием фильма Скриншоты Сравнение
http://screenshotcomparison.com/comparison/103267/picture:1
релиз конкурента - [url=http://***/forum/viewtopic.php?t=4882471]http://***/forum/viewtopic.php?t=4882471[/url]
Скачать

Скачать торрент!

Как скачивать? · Что такое торрент? · Рейтинг и ограничения

Сайт не распространяет и не хранит электронные версии произведений, а лишь предоставляет доступ к создаваемому пользователями каталогу ссылок на торрент-файлы, которые содержат только списки хеш-сумм

[Профиль] [ЛС]
Показать сообщения:    
Ответить на тему

Текущее время: Сегодня 10:00

Часовой пояс: GMT + 4



Вы не можете начинать темы
Вы не можете отвечать на сообщения
Вы не можете редактировать свои сообщения
Вы не можете удалять свои сообщения
Вы не можете голосовать в опросах
Вы не можете прикреплять файлы к сообщениям
Вы не можете скачивать файлы