Бивень / Tusk (Кевин Смит / Kevin Smith) [2014, США, Комедия, Триллер, Ужасы, WEB-DLRip] Dub (Line)

Ответить на тему
 
Автор Сообщение

user ®

Стаж: 8 лет 2 месяца

Сообщений: 20008

Пост Пост: #1 от 07-Дек-2014 11:50

[Цитировать]

Бивень / Tusk
«Люди для него - лишь расходный материал»
Страна: США
Жанр: Комедия, Триллер, Ужасы
Год выпуска: 2014
Продолжительность: 1:41:38
Перевод: Профессиональный (дублированный) Line
Cубтитры: нет
Режиссер: Кевин Смит / Kevin Smith
В ролях: Майкл Паркс, Джастин Лонг, Дженезис Родригез, Хэйли Джоэл Осмент, Джонни Депп, Харли Моренштейн, Ральф Гармен, Дженнифер Швалбах Смит, Харли Куинн Смит, Лили-Роуз Мелоди Депп
Описание: Журналист Уоллес Брайтон уехал брать интервью и исчез навсегда. Его друг вместе с девушкой Уоллеса отправляется на поиски. Поиски приводят пару к полицейскому в отставке, который много лет занимался поиском пропавших людей и который рассказывает им, что есть некая закономерность в пропаже людей. Люди пропадают, а потом находят их обезображенные кости. Полицейский думает, что все это дело рук серийного убийцы. Считая, что Уоллес каким-то образом попал в его руки, троица идет по следу маньяка, даже не представляя себе, что правда, которую им предстоит узнать, настолько ужасна, что в нее просто невозможно поверить.
Возраст: 18+
рейтинг MPAA: R (лицам до 17 лет обязательно присутствие взрослого)
Сэмпл: https://yadi.sk/i/0XwE3VlndCX6u
Качество видео: WEB-DLRip (исходник WEB-DL 720p)
Формат видео: AVI
Видео: XVID, 688 x 292 (2.35:1), 23.976 fps, 866 Kbps
Аудио: MPEG Audio Layer 3, 44.1 KHz, 2 ch, 128 Kbps
MediaInfo
General
Полное имя : D:\TORRENT\Бивень\Bivenb.2014.D.WEB-DLRip_[nikshutnik].avi
Формат : AVI
Формат/Информация : Audio Video Interleave
Размер файла : 731 MiB
Продолжительность : 1h 41mn
Общий поток : 1 006 Kbps
Программа кодирования : Lavf56.4.101
Video
Идентификатор : 0
Формат : MPEG-4 Visual
Профиль формата : Simple@L1
Параметр BVOP формата : No
Параметр QPel формата : No
Параметр GMC формата : No warppoints
Параметр матрицы формата : Default (H.263)
Идентификатор кодека : XVID
Идентификатор кодека/Подсказка : XviD
Продолжительность : 1h 41mn
Битрейт : 866 Kbps
Ширина : 688 pixels
Высота : 292 pixels
Соотношение сторон : 2.35:1
Соотношение сторон в оригинале : 2.35:1
Частота кадров : 23.976 fps
Цветовое пространство : YUV
Субдискретизация насыщенности : 4:2:0
Битовая глубина : 8 bits
Тип развёртки : Progressive
Метод сжатия : Lossy
Бит/(Пиксели*Кадры) : 0.180
Размер потока : 629 MiB (86%)
Библиотека кодирования : Lavc56.1.100
Audio
Идентификатор : 1
Формат : MPEG Audio
Версия формата : Version 1
Профиль формата : Layer 3
Идентификатор кодека : 55
Идентификатор кодека/Подсказка : MP3
Продолжительность : 1h 41mn
Вид битрейта : Constant
Битрейт : 128 Kbps
Каналы : 2 channels
Частота : 44.1 KHz
Метод сжатия : Lossy
Размер потока : 93.0 MiB (13%)
Выравнивание : Aligned on interleaves
Продолжительность промежутка : 26 ms (0.63 video frame)
Время предзагрузки промежутка : 26 ms
Библиотека кодирования : LAME3.99.5
Скриншот c названием фильма Скриншоты
Скачать

Скачать торрент!

Как скачивать? · Что такое торрент? · Рейтинг и ограничения

Сайт не распространяет и не хранит электронные версии произведений, а лишь предоставляет доступ к создаваемому пользователями каталогу ссылок на торрент-файлы, которые содержат только списки хеш-сумм

[Профиль] [ЛС]
Показать сообщения:    
Ответить на тему

Текущее время: Сегодня 20:40

Часовой пояс: GMT + 4



Вы не можете начинать темы
Вы не можете отвечать на сообщения
Вы не можете редактировать свои сообщения
Вы не можете удалять свои сообщения
Вы не можете голосовать в опросах
Вы не можете прикреплять файлы к сообщениям
Вы не можете скачивать файлы