Типа копы / Let\'s Be Cops (Люк Гринфилд / Luke Greenfield) [2014, США, Комедия, BDRip] Dub

Ответить на тему
 
Автор Сообщение

user ®

Стаж: 7 лет 7 месяцев

Сообщений: 20008

Пост Пост: #1 от 07-Дек-2014 11:50

[Цитировать]

Типа копы / Let's Be Cops
«Левые копы. Реальные проблемы»
Страна: США
Жанр: Комедия
Год выпуска: 2014
Продолжительность: 1:44:28
Перевод: Профессиональный (дублированный) Лицензия
Cубтитры: нет
Режиссер: Люк Гринфилд / Luke Greenfield
В ролях: Дэймон Уайанс мл., Джейк Джонсон, Роб Риггл, Нина Добрев, Джеймс Д’Арси, Энди Гарсиа, Кигэн-Майкл Ки, Джон Лажуа, Том Мардиросян, Наташа Леггеро
Роли дублировали: Антон Эльдаров, Пётр Иващенко, Василий Дахненко, Татьяна Шитова, Илья Исаев
Описание: Получив приглашение на костюмированную вечеринку, два нерадивых приятеля решают нарядиться полицейскими, и вдруг их популярность среди гостей подскакивает до максимума. На волне успеха парни продолжают игру. Но неожиданно псевдокопы оказываются впутанными в реальную криминальную историю, и теперь им придется применить свои фальшивые значки по полной.
Возраст: 18+
рейтинг MPAA: R (лицам до 17 лет обязательно присутствие взрослого)
Сэмпл: https://yadi.sk/i/5jkj-58ndCaSg
Качество видео: BDRip
Формат видео: AVI
Видео: DX50, 688 x 368 (1.85:1), 23.976 fps, 859 Kbps
Аудио: MPEG Audio Layer 3, 48.0 KHz, 2 ch, 128 Kbps
MediaInfo
General
Полное имя : D:\TORRENT\Типа копы\Tipa.Kopy.2014.BDRip.Dub.744_[nikshutnik].avi
Формат : AVI
Формат/Информация : Audio Video Interleave
Размер файла : 744 MiB
Продолжительность : 1h 44mn
Общий поток : 996 Kbps
Программа кодирования : VirtualDubMod 1.5.10.3 | www.virtualdub-fr.org || (build 2550/release)
Библиотека кодирования : VirtualDubMod build 2550/release
Video
Идентификатор : 0
Формат : MPEG-4 Visual
Профиль формата : Advanced Simple@L5
Параметр BVOP формата : 2
Параметр QPel формата : No
Параметр GMC формата : No warppoints
Параметр матрицы формата : Default (MPEG)
Идентификатор кодека : DX50
Идентификатор кодека/Подсказка : DivX 5
Продолжительность : 1h 44mn
Битрейт : 859 Kbps
Ширина : 688 pixels
Высота : 368 pixels
Соотношение сторон : 1.85:1
Частота кадров : 23.976 fps
Цветовое пространство : YUV
Субдискретизация насыщенности : 4:2:0
Битовая глубина : 8 bits
Тип развёртки : Progressive
Метод сжатия : Lossy
Бит/(Пиксели*Кадры) : 0.141
Размер потока : 642 MiB (86%)
Библиотека кодирования : XviD 1.2.1 (UTC 2008-12-04)
Audio
Идентификатор : 1
Формат : MPEG Audio
Версия формата : Version 1
Профиль формата : Layer 3
Идентификатор кодека : 55
Идентификатор кодека/Подсказка : MP3
Продолжительность : 1h 44mn
Вид битрейта : Constant
Битрейт : 128 Kbps
Каналы : 2 channels
Частота : 48.0 KHz
Метод сжатия : Lossy
Размер потока : 95.6 MiB (13%)
Выравнивание : Aligned on interleaves
Продолжительность промежутка : 42 ms (1.00 video frame)
Время предзагрузки промежутка : 504 ms
Библиотека кодирования : LAME3.99r
Настройки программы : -m s -V 4 -q 2 -lowpass 17 -b 128
Скриншот c названием фильма Скриншоты
Скачать

Скачать торрент!

Как скачивать? · Что такое торрент? · Рейтинг и ограничения

Сайт не распространяет и не хранит электронные версии произведений, а лишь предоставляет доступ к создаваемому пользователями каталогу ссылок на торрент-файлы, которые содержат только списки хеш-сумм

[Профиль] [ЛС]
Показать сообщения:    
Ответить на тему

Текущее время: Сегодня 04:29

Часовой пояс: GMT + 4



Вы не можете начинать темы
Вы не можете отвечать на сообщения
Вы не можете редактировать свои сообщения
Вы не можете удалять свои сообщения
Вы не можете голосовать в опросах
Вы не можете прикреплять файлы к сообщениям
Вы не можете скачивать файлы