Не шутите с Зоханом! / You Don\'t Mess with the Zohan (Дэннис Дуган / Dennis Dugan) [2008 г., США, боевик, комедия, BDRip 1080p] [Theatrical cut] Dub + Ukr + Original Eng + Sub (Rus, Ukr, Eng)

Ответить на тему
 
Автор Сообщение

user ®

Стаж: 7 лет 7 месяцев

Сообщений: 20008

Пост Пост: #1 от 07-Дек-2014 08:40

[Цитировать]

-Не шутите с Зоханом! / You Don't Mess with the Zohan«Уложу любую...» Страна: США
Студия: Happy Madison, Relativity Media
Жанр: Боевик, комедия
Год выпуска: 2008
Продолжительность: 01:52:47-Перевод: Профессиональный (полное дублирование)
Оригинальная аудиодорожка: английский
Cубтитры: русские, украинские, английские
Режиссер: Дэннис Дуган / Dennis Dugan
В ролях: Адам Сэндлер, Джон Туртурро, Эммануэль Шрики, Ник Свардсон, Лэйни Кэзан, Идо Муссари, Роб Шнайдер, Дэйв Мэтьюз, Майкл Баффер, Шарлотта Рэй
Описание: Зохан — израильский коммандос, агент Моссада и антитеррорист — во время захвата известного мирового преступника инсценирует собственную гибель, дабы завязать с героическим прошлым и осуществить свою давнюю мечту: стать стилистом в Нью-Йорке. Вооружившись ножницами и желанным руководством, он решает начать свою карьеру в небольшом салоне.
Слава о повышенном внимании к деталям и оказании особого сервиса быстро распространяется среди представительниц прекрасного пола, и желающих оказаться в его кресле становится пруд пруди. Но внезапно его узнают и над романтически настроенным Зоханам нависает угроза потерять не только полюбившуюся карьеру, но на этот раз и собственную жизнь.-
Сэмпл: скачать-Релиз от -
Автор рипа: Elheym
Качество: BDRip 1080p (источник: [url=http://***/forum/viewtopic.php?t=1507888]rutracker[/url] / Blu-ray Disc / 1080p)
Контейнер: MKV
Видео: 1920x1040 (1.85:1), 23.976 fps, MPEG-4 AVC, ~15200 kbps avg, 0.317 bit/pixel
Аудио #1: Русский: AC3, 5.1, 48 kHz, ~448 Кбит/с | Профессиональный (полное дублирование) |
Аудио #2: Украинский: АС3, 5.1, 48 kHz, ~448 Кбит/с | Профессиональный (полное дублирование) |
Аудио #3: Английский: DTS, 5.1, 48 kHz, ~1510 Кбит/с | Оригинал |
Субтитры: Русские (полные, форсированные), Украинские (форсированные), Английские (полные, полные SDH)
Главы: Присутствуют, сохранены оригинальные
MediaInfo
Уникальный идентификатор : 243772611548045971021419922465817730264 (0xB764E5B038DBEF2CABD7DC16D1599CD8)
Полное имя : You.Don't.Mess.with.the.Zohan.2008.1080p.BluRay.Rus.Ukr.Eng.-HQCLUB.mkv
Формат : Matroska
Версия формата : Version 2
Размер файла : 13,9 Гбайт
Продолжительность : 1 ч. 52 м.
Общий поток : 17,6 Мбит/сек
Дата кодирования : UTC 2014-12-03 18:06:26
Программа кодирования : mkvmerge v5.2.0 ('I can't explain') built on Dec 18 2011 18:12:03
Библиотека кодирования : libebml v1.2.3 + libmatroska v1.3.0
Видео
Идентификатор : 1
Формат : AVC
Формат/Информация : Advanced Video Codec
Профиль формата : High@L4.1
Параметр CABAC формата : Да
Параметр ReFrames формата : 3 кадра
Идентификатор кодека : V_MPEG4/ISO/AVC
Продолжительность : 1 ч. 52 м.
Битрейт : 15,2 Мбит/сек
Ширина : 1920 пикселей
Высота : 1040 пикселей
Соотношение сторон : 1,85:1
Режим частоты кадров : Постоянный
Частота кадров : 23,976 кадра/сек
Цветовое пространство : YUV
Субдискретизация насыщенности : 4:2:0
Битовая глубина : 8 бит
Тип развёртки : Прогрессивная
Бит/(Пиксели*Кадры) : 0.317
Размер потока : 11,7 Гбайт (84%)
Заголовок : Не шутите с Zоханом! / You Don't Mess with the Zohan (2008) BDRip 1080p by HQCLUB [Elheym]
Библиотека кодирования : x264 core 142 r2491kMod 24e4fed
Настройки программы : cabac=1 / ref=4 / deblock=1:-3:-2 / analyse=0x3:0x113 / me=umh / subme=11 / psy=1 / fade_compensate=0.00 / psy_rd=1.10:0.00 / mixed_ref=1 / me_range=32 / chroma_me=1 / trellis=2 / 8x8dct=1 / cqm=0 / deadzone=21,11 / fast_pskip=1 / chroma_qp_offset=-4 / threads=6 / lookahead_threads=1 / sliced_threads=0 / nr=0 / decimate=1 / interlaced=0 / bluray_compat=0 / constrained_intra=0 / fgo=0 / bframes=9 / b_pyramid=1 / b_adapt=2 / b_bias=0 / direct=3 / weightb=1 / open_gop=0 / weightp=2 / keyint=230 / keyint_min=23 / scenecut=40 / intra_refresh=0 / rc_lookahead=40 / rc=2pass / mbtree=0 / bitrate=15200 / ratetol=1.0 / qcomp=0.76 / qpmin=0 / qpmax=69 / qpstep=4 / cplxblur=20.0 / qblur=0.5 / vbv_maxrate=50000 / vbv_bufsize=62500 / nal_hrd=none / filler=0 / ip_ratio=1.40 / pb_ratio=1.30 / aq=1:0.90
Язык : English
Default : Да
Forced : Нет
Аудио #1
Идентификатор : 2
Формат : AC-3
Формат/Информация : Audio Coding 3
Расширение режима : CM (complete main)
Параметр Endianness формата : Big
Идентификатор кодека : A_AC3
Продолжительность : 1 ч. 52 м.
Вид битрейта : Постоянный
Битрейт : 448 Кбит/сек
Каналы : 6 каналов
Расположение каналов : Front: L C R, Side: L R, LFE
Частота : 48,0 КГц
Битовая глубина : 16 бит
Метод сжатия : С потерями
Размер потока : 361 Мбайт (3%)
Заголовок : АС3 5.1 @ 448 kbps - Dub
Язык : Russian
Default : Нет
Forced : Нет
Аудио #2
Идентификатор : 3
Формат : AC-3
Формат/Информация : Audio Coding 3
Расширение режима : CM (complete main)
Параметр Endianness формата : Big
Идентификатор кодека : A_AC3
Продолжительность : 1 ч. 52 м.
Вид битрейта : Постоянный
Битрейт : 448 Кбит/сек
Каналы : 6 каналов
Расположение каналов : Front: L C R, Side: L R, LFE
Частота : 48,0 КГц
Битовая глубина : 16 бит
Метод сжатия : С потерями
Размер потока : 361 Мбайт (3%)
Заголовок : АС3 5.1 @ 448 kbps - Dub
Язык : Ukrainian
Default : Нет
Forced : Нет
Аудио #3
Идентификатор : 4
Формат : DTS
Формат/Информация : Digital Theater Systems
Режим : 16
Параметр Endianness формата : Big
Идентификатор кодека : A_DTS
Продолжительность : 1 ч. 52 м.
Вид битрейта : Постоянный
Битрейт : 1510 Кбит/сек
Каналы : 6 каналов
Расположение каналов : Front: L C R, Side: L R, LFE
Частота : 48,0 КГц
Битовая глубина : 16 бит
Метод сжатия : С потерями
Размер потока : 1,19 Гбайт (9%)
Заголовок : DTS 5.1 @ 1510 kbps - Original
Язык : English
Default : Нет
Forced : Нет
Текст #1
Идентификатор : 5
Формат : UTF-8
Идентификатор кодека : S_TEXT/UTF8
Идентификатор кодека/Информация : UTF-8 Plain Text
Заголовок : Full
Язык : Russian
Default : Нет
Forced : Нет
Текст #2
Идентификатор : 6
Формат : UTF-8
Идентификатор кодека : S_TEXT/UTF8
Идентификатор кодека/Информация : UTF-8 Plain Text
Заголовок : Forced
Язык : Russian
Default : Да
Forced : Нет
Текст #3
Идентификатор : 7
Формат : UTF-8
Идентификатор кодека : S_TEXT/UTF8
Идентификатор кодека/Информация : UTF-8 Plain Text
Заголовок : Forced
Язык : Ukrainian
Default : Нет
Forced : Нет
Текст #4
Идентификатор : 8
Формат : UTF-8
Идентификатор кодека : S_TEXT/UTF8
Идентификатор кодека/Информация : UTF-8 Plain Text
Заголовок : Full
Язык : English
Default : Нет
Forced : Нет
Текст #5
Идентификатор : 9
Формат : UTF-8
Идентификатор кодека : S_TEXT/UTF8
Идентификатор кодека/Информация : UTF-8 Plain Text
Заголовок : Full SDH
Язык : English
Default : Нет
Forced : Нет
Меню
00:00:00.000 : :Chapter 01
00:07:48.092 : :Chapter 02
00:13:38.567 : :Chapter 03
00:19:05.102 : :Chapter 04
00:26:58.616 : :Chapter 05
00:32:23.232 : :Chapter 06
00:39:54.934 : :Chapter 07
00:45:55.669 : :Chapter 08
00:52:45.662 : :Chapter 09
01:00:40.470 : :Chapter 10
01:08:39.448 : :Chapter 11
01:16:13.485 : :Chapter 12
01:22:58.681 : :Chapter 13
01:28:34.225 : :Chapter 14
01:35:21.465 : :Chapter 15
01:44:36.269 : :Chapter 16
x264 log
x264 [info]: frame I:1823 Avg QP:16.46 size:371668
x264 [info]: frame P:43011 Avg QP:18.59 size:138065
x264 [info]: frame B:117430 Avg QP:20.77 size: 53051
x264 [info]: consecutive B-frames: 3.1% 7.9% 5.7% 57.7% 8.0% 9.8% 3.5% 3.9% 0.1% 0.3%
x264 [info]: ref P L0: 69.8% 15.0% 14.1% 1.1% 0.0%
x264 [info]: ref B L0: 95.9% 4.1%
x264 [info]: ref B L1: 96.8% 3.2%
Скриншоты Сравнения
Скачать

Скачать торрент!

Как скачивать? · Что такое торрент? · Рейтинг и ограничения

Сайт не распространяет и не хранит электронные версии произведений, а лишь предоставляет доступ к создаваемому пользователями каталогу ссылок на торрент-файлы, которые содержат только списки хеш-сумм

[Профиль] [ЛС]
Показать сообщения:    
Ответить на тему

Текущее время: Сегодня 21:57

Часовой пояс: GMT + 4



Вы не можете начинать темы
Вы не можете отвечать на сообщения
Вы не можете редактировать свои сообщения
Вы не можете удалять свои сообщения
Вы не можете голосовать в опросах
Вы не можете прикреплять файлы к сообщениям
Вы не можете скачивать файлы