Люси / Lucy (Люк Бессон / Luc Besson) [2014, Франция, фантастика, боевик, BDRip-AVC] Dub + Sub Rus, Eng, Ukr + Original Eng

Ответить на тему
 
Автор Сообщение

user ®

Стаж: 7 лет 7 месяцев

Сообщений: 20008

Пост Пост: #1 от 06-Дек-2014 21:20

[Цитировать]

Люси / Lucy«Она — ключ к тайнам Вселенной»- Страна: Франция
Жанр: фантастика, боевик
Год выпуска: 2014
Продолжительность: 01:29:20
Перевод: Профессиональный (дублированный)Лицензия Blu-ray CEE
Cубтитры: Rus, Eng [Forced, Ful] Ukr
Оригинальная аудиодорожка: английский
Режиссер: Люк Бессон / Luc Besson
В ролях:
Скарлетт Йоханссон /Scarlett Johansson
Морган Фримен /Morgan Freeman
Аналей Типтон, Чхве Мин Сик, Амр Вакид, Мэйсон Ли, Йохан Филип Асбек, Фредерик Чау, Клер Трэн, Жан Оливер Шредер-ОписаниеЕще вчера она была просто сексапильной блондинкой, а сегодня — самое опасное и смертоносное создание на планете со сверхъестественными способностями и интеллектом. То, что совсем недавно лучшие умы мира считали фантастической теорией, для нее стало реальностью. И теперь из добычи она превратится в охотницу.-Сэмпл

IMDb: 6.50 (145 283)
Качество видео: BDRip-AVC Blu-Ray.CEE.Remux.1080p.gogamel74.ExKinoRay
Формат видео: MKV
Видео: AVC 2749 Kbps 1136 x 476 (2.387) 23.976 fps
Аудио: AC-3 384 Kbps 6 channels, 48.0 KHz Dub
Аудио 2: AC-3 384 Kbps 6 channels, 48.0 KHz Eng
Формат субтитров: softsub (SRT)
FAQ по просмотру MKV/h.264 | Хеш файла [info_hash]
[url=http://***/forum/viewtopic.php?p=9255801]FAQ по просмотру MKV/h.264/AAC[/url]
Хеш файла [info_hash] (Хеш-сумма)
или проще говоря хеш файла является уникальным идентификатором файла (раздачи)
Как скачать раздачу, зная только её хеш?
[url=http://wiki.***/%D0%A5%D0%B5%D1%88-%D1%81%D1%83%D0%BC%D0%BC%D0%B0_%D0%B8_%D0%BC%D0%B0%D0%B3%D0%BD%D0%B5%D1%82-%D1%81%D1%81%D1%8B%D0%BB%D0%BA%D0%B8#.D0.9A.D0.B0.D0.BA_.D1.81.D0.BA.D0.B0.D1.87.D0.B0.D1.82.D1.8C_.D1.80.D0.B0.D0.B7.D0.B4.D0.B0.D1.87.D1.83.2C_.D0.B7.D0.BD.D0.B0.D1.8F_.D1.82.D0.BE.D0.BB.D1.8C.D0.BA.D0.BE_.D0.B5.D1.91_.D1.85.D0.B5.D1.88.3F]Как скачать раздачу, зная только её хеш?[/url]
[url=http://***/forum/viewtopic.php?t=4824458]Открытая база раздач ***[/url]
MediaInfo | Log
Log
x264 [info]: frame I:1348 Avg QP:15.50 size: 84285
x264 [info]: frame P:30196 Avg QP:16.72 size: 30129
x264 [info]: frame B:96977 Avg QP:19.01 size: 8917
x264 [info]: consecutive B-frames: 3.7% 3.4% 9.9% 23.1% 20.4% 28.4% 4.1% 1.8% 1.2% 0.8% 0.7% 1.7% 1.0%
x264 [info]: mb I I16..4: 10.2% 67.9% 22.0%
x264 [info]: mb P I16..4: 1.1% 14.7% 2.2% P16..4: 27.3% 31.6% 12.8% 2.5% 0.3% skip: 7.6%
x264 [info]: mb B I16..4: 0.1% 1.5% 0.2% B16..8: 31.5% 20.5% 3.7% direct: 5.0% skip:37.5% L0:41.5% L1:43.1% BI:15.4%
x264 [info]: 8x8 transform intra:79.2% inter:59.5%
x264 [info]: coded y,uvDC,uvAC intra: 90.6% 92.4% 81.2% inter: 21.5% 22.0% 8.3%
x264 [info]: i16 v,h,dc,p: 36% 11% 5% 47%
x264 [info]: i8 v,h,dc,ddl,ddr,vr,hd,vl,hu: 9% 9% 6% 10% 13% 13% 13% 12% 14%
x264 [info]: i4 v,h,dc,ddl,ddr,vr,hd,vl,hu: 12% 10% 6% 8% 14% 13% 13% 10% 12%
x264 [info]: i8c dc,h,v,p: 44% 20% 16% 19%
x264 [info]: Weighted P-Frames: Y:5.6% UV:3.6%
x264 [info]: ref P L0: 47.7% 11.4% 17.4% 6.0% 5.0% 3.3% 2.9% 1.5% 1.4% 1.1% 1.1% 1.0% 0.2% 0.0%
x264 [info]: ref B L0: 73.8% 11.8% 5.2% 2.8% 1.9% 1.5% 1.1% 0.8% 0.6% 0.4% 0.2%
x264 [info]: ref B L1: 92.7% 7.3%
x264 [info]: kb/s:2817.87
x264 [total]: encoded 128521 frames, 10.33 fps, 2817.87 kb/s, duration 3:27:23.18
Format : Matroska
Format version : Version 4 / Version 2
File size : 2.24 GiB
Duration : 1h 29mn
Overall bit rate : 3 588 Kbps
Encoded date : UTC 2014-11-23 19:46:44
Writing application : mkvmerge v6.7.0 ('Back to the Ground') 32bit built on Jan 8 2014 15:03:17
Writing library : libebml v1.3.0 + libmatroska v1.4.1
Video
ID : 1
Format : AVC
Format/Info : Advanced Video Codec
Format profile : High@L4.1
Format settings, CABAC : Yes
Format settings, ReFrames : 12 frames
Codec ID : V_MPEG4/ISO/AVC
Duration : 1h 29mn
Bit rate : 2 749 Kbps
Width : 1 136 pixels
Height : 476 pixels
Display aspect ratio : 2.40:1
Frame rate mode : Constant
Frame rate : 23.976 fps
Color space : YUV
Chroma subsampling : 4:2:0
Bit depth : 8 bits
Scan type : Progressive
Bits/(Pixel*Frame) : 0.212
Stream size : 1.72 GiB (77%)
Title : Lucy [2014] ***
Writing library : x264 core 142 r2453kMod ea0ca51
Encoding settings : cabac=1 / ref=12 / deblock=1:-2:-2 / analyse=0x3:0x133 / me=umh / subme=11 / psy=1 / fade_compensate=0.00 / psy_rd=1.00:0.05 / mixed_ref=1 / me_range=32 / chroma_me=1 / trellis=2 / 8x8dct=1 / cqm=0 / deadzone=21,11 / fast_pskip=0 / chroma_qp_offset=-3 / threads=12 / lookahead_threads=3 / sliced_threads=0 / nr=0 / decimate=1 / interlaced=0 / bluray_compat=0 / constrained_intra=0 / fgo=0 / bframes=12 / b_pyramid=2 / b_adapt=2 / b_bias=0 / direct=1 / weightb=1 / open_gop=0 / weightp=2 / keyint=250 / keyint_min=23 / scenecut=40 / intra_refresh=0 / rc_lookahead=60 / rc=crf / mbtree=0 / crf=17.4000 / qcomp=0.60 / qpmin=0 / qpmax=69 / qpstep=4 / vbv_maxrate=50000 / vbv_bufsize=62500 / crf_max=0.0 / nal_hrd=none / filler=0 / ip_ratio=1.40 / pb_ratio=1.30 / aq=3:0.90
Language : English
Default : Yes
Forced : No
Audio #1
ID : 2
Format : AC-3
Format/Info : Audio Coding 3
Mode extension : CM (complete main)
Format settings, Endianness : Big
Codec ID : A_AC3
Duration : 1h 29mn
Bit rate mode : Constant
Bit rate : 384 Kbps
Channel(s) : 6 channels
Channel positions : Front: L C R, Side: L R, LFE
Sampling rate : 48.0 KHz
Bit depth : 16 bits
Compression mode : Lossy
Stream size : 245 MiB (11%)
Title : DUB Blu-ray CEE
Language : Russian
Default : Yes
Forced : No
Audio #2
ID : 3
Format : AC-3
Format/Info : Audio Coding 3
Mode extension : CM (complete main)
Format settings, Endianness : Big
Codec ID : A_AC3
Duration : 1h 29mn
Bit rate mode : Constant
Bit rate : 384 Kbps
Channel(s) : 6 channels
Channel positions : Front: L C R, Side: L R, LFE
Sampling rate : 48.0 KHz
Bit depth : 16 bits
Compression mode : Lossy
Stream size : 245 MiB (11%)
Title : Original (Eng, Fre, Kor)
Language : English
Default : No
Forced : No
Text #1
ID : 4
Format : UTF-8
Codec ID : S_TEXT/UTF8
Codec ID/Info : UTF-8 Plain Text
Title : Forced
Language : Russian
Default : Yes
Forced : No
Text #2
ID : 5
Format : UTF-8
Codec ID : S_TEXT/UTF8
Codec ID/Info : UTF-8 Plain Text
Title : FULL
Language : Russian
Default : No
Forced : No
Text #3
ID : 6
Format : UTF-8
Codec ID : S_TEXT/UTF8
Codec ID/Info : UTF-8 Plain Text
Title : Forced
Language : English
Default : No
Forced : No
Text #4
ID : 7
Format : UTF-8
Codec ID : S_TEXT/UTF8
Codec ID/Info : UTF-8 Plain Text
Title : FULL
Language : English
Default : No
Forced : No
Text #5
ID : 8
Format : UTF-8
Codec ID : S_TEXT/UTF8
Codec ID/Info : UTF-8 Plain Text
Language : Ukrainian
Default : No
Forced : No
Menu
00:00:00.000 : en:Chapter 01
00:05:26.367 : en:Chapter 02
00:08:38.267 : en:Chapter 03
00:15:45.569 : en:Chapter 04
00:21:36.837 : en:Chapter 05
00:26:05.397 : en:Chapter 06
00:30:27.534 : en:Chapter 07
00:37:36.254 : en:Chapter 08
00:41:43.459 : en:Chapter 09
00:47:32.558 : en:Chapter 10
00:50:10.716 : en:Chapter 11
00:55:32.495 : en:Chapter 12
00:59:36.072 : en:Chapter 13
01:02:08.099 : en:Chapter 14
01:04:51.345 : en:Chapter 15
01:07:14.030 : en:Chapter 16
01:09:55.816 : en:Chapter 17
01:12:26.133 : en:Chapter 18
01:18:50.475 : en:Chapter 19
01:22:31.988 : en:Chapter 20
Скриншоты | Rip vs Source
Скачать

Скачать торрент!

Как скачивать? · Что такое торрент? · Рейтинг и ограничения

Сайт не распространяет и не хранит электронные версии произведений, а лишь предоставляет доступ к создаваемому пользователями каталогу ссылок на торрент-файлы, которые содержат только списки хеш-сумм

[Профиль] [ЛС]
Показать сообщения:    
Ответить на тему

Текущее время: Сегодня 10:05

Часовой пояс: GMT + 4



Вы не можете начинать темы
Вы не можете отвечать на сообщения
Вы не можете редактировать свои сообщения
Вы не можете удалять свои сообщения
Вы не можете голосовать в опросах
Вы не можете прикреплять файлы к сообщениям
Вы не можете скачивать файлы