Обитель проклятых / Stonehearst Asylum (Брэд Андерсон / Brad Anderson) [2014, США, триллер, HDRip] Dub + Original Eng

Ответить на тему
 
Автор Сообщение

user ®

Стаж: 7 лет 7 месяцев

Сообщений: 20008

Пост Пост: #1 от 06-Дек-2014 18:10

[Цитировать]

--Обитель проклятых / Stonehearst Asylum--«No one is what they seem»- Страна: США
Жанр: триллер
Год выпуска: 2014
Продолжительность: 01:52:33-Перевод: Профессиональный (дублированный) Лицензия
Оригинальная аудиодорожка: английский-Режиссер: Брэд Андерсон / Brad Anderson-В ролях: Кейт Бекинсейл, Джим Стёрджесс, Бен Кингсли, Дэвид Тьюлис, Майкл Кейн, Брендан Глисон, Джейсон Флеминг, Софи Кеннеди Кларк, Шинейд Кьюсак, Гийом Делони
Описание: Молодой медицинский работник Эдвард устраивается работать в психиатрическую лечебницу. Вскоре становится известно об исчезновении одного из лечащих врачей психушки. Эдвард обнаруживает, что его похитили пациенты больницы, а вскоре и вся психушка оказывается захвачена ими…

-|Сэмпл|IMDB|КиноПоиск|

-Качество видео: HDRip
Формат видео: AVI
Видео: 720x304 (2.37:1), 24 fps, XviD MPEG-4 ~1870 kbps avg, 0.36 bit/pixel
Аудио: 48 kHz, AC3 Dolby Digital, 3/2 (L,C,R,l,r) + LFE ch, ~448 kbps
Аудио 2: 48 kHz, AC3 Dolby Digital, 3/2 (L,C,R,l,r) + LFE ch, ~448 kbps

MediaInfo
бщее
Полное имя : F:\BD torrent\mytorrentsup\Stonehearst.Asylum.2014.D.HDRip.avi
Формат : AVI
Формат/Информация : Audio Video Interleave
Профиль формата : OpenDML
Размер файла : 2,18 Гбайт
Продолжительность : 1 ч. 52 м.
Общий поток : 2774 Кбит/сек
Название фильма : Stonehearst.Asylum.2014.D.HDRip
Программа кодирования : VirtualDubMod 1.5.10.3 | www.virtualdub-fr.org || (build 2550/release)
Видео
Идентификатор : 0
Формат : MPEG-4 Visual
Профиль формата : Advanced Simple@L5
Параметр BVOP формата : 3
Параметр QPel формата : Нет
Параметр GMC формата : Без точки перехода
Параметр матрицы формата : Default (MPEG)
Идентификатор кодека : XVID
Идентификатор кодека/Подсказка : XviD
Продолжительность : 1 ч. 52 м.
Битрейт : 1860 Кбит/сек
Ширина : 720 пикселей
Высота : 304 пикселя
Соотношение сторон : 2,35:1
Частота кадров : 24,000 кадра/сек
Цветовое пространство : YUV
Субдискретизация насыщенности : 4:2:0
Битовая глубина : 8 бит
Тип развёртки : Прогрессивная
Метод сжатия : С потерями
Бит/(Пиксели*Кадры) : 0.354
Размер потока : 1,46 Гбайт (67%)
Библиотека кодирования : XviD 1.2.1 (UTC 2008-12-04)
Аудио #1
Идентификатор : 1
Формат : AC-3
Формат/Информация : Audio Coding 3
Расширение режима : CM (complete main)
Параметр Endianness формата : Big
Идентификатор кодека : 2000
Продолжительность : 1 ч. 52 м.
Вид битрейта : Постоянный
Битрейт : 448 Кбит/сек
Каналы : 6 каналов
Расположение каналов : Front: L C R, Side: L R, LFE
Частота : 48,0 КГц
Битовая глубина : 16 бит
Метод сжатия : С потерями
Размер потока : 361 Мбайт (16%)
Выравнивание : Разделение по промежуткам
Продолжительность промежутка : 42 мс. (1,00 видеокадр)
Время предзагрузки промежутка : 500 мс.
Аудио #2
Идентификатор : 2
Формат : AC-3
Формат/Информация : Audio Coding 3
Расширение режима : CM (complete main)
Параметр Endianness формата : Big
Идентификатор кодека : 2000
Продолжительность : 1 ч. 52 м.
Вид битрейта : Постоянный
Битрейт : 448 Кбит/сек
Каналы : 6 каналов
Расположение каналов : Front: L C R, Side: L R, LFE
Частота : 48,0 КГц
Битовая глубина : 16 бит
Метод сжатия : С потерями
Размер потока : 361 Мбайт (16%)
Выравнивание : Разделение по промежуткам
Продолжительность промежутка : 42 мс. (1,00 видеокадр)
Время предзагрузки промежутка : 500 мс.
Скриншот c названием фильма Скриншоты Сравнение
C этой раздачи:[url=http://***/forum/viewtopic.php?t=4885032]http://***/forum/viewtopic.php?t=4885032[/url] http://screenshotcomparison.com/comparison/103103/picture:0
Оригинальная аудиодорожка: английский
Скачать

Скачать торрент!

Как скачивать? · Что такое торрент? · Рейтинг и ограничения

Сайт не распространяет и не хранит электронные версии произведений, а лишь предоставляет доступ к создаваемому пользователями каталогу ссылок на торрент-файлы, которые содержат только списки хеш-сумм

[Профиль] [ЛС]
Показать сообщения:    
Ответить на тему

Текущее время: Сегодня 12:05

Часовой пояс: GMT + 4



Вы не можете начинать темы
Вы не можете отвечать на сообщения
Вы не можете редактировать свои сообщения
Вы не можете удалять свои сообщения
Вы не можете голосовать в опросах
Вы не можете прикреплять файлы к сообщениям
Вы не можете скачивать файлы