Параграф 78 (Михаил Хлебородов) [2007, Россия , фантастика, боевик, триллер, DVDRip]

Ответить на тему
 
Автор Сообщение

user ®

Стаж: 7 лет 7 месяцев

Сообщений: 20008

Пост Пост: #1 от 06-Дек-2014 15:00

[Цитировать]

Параграф 78: Фильмы первый и второй«Жребий брошен...»- Страна: Россия
Жанр: фантастика, боевик, триллер
Год выпуска: 2007
Продолжительность: 01:27:42 и 01:29:53-Перевод: Не требуется
Субтитры: нет
Режиссер: Михаил Хлебородов
В ролях: Гоша Куценко, Владимир Вдовиченков, Григорий Сиятвинда, Слава, Станислав Дужников, Азиз Бейшеналиев, Анатолий Белый, Юсуп Бахшиев, Михаил Ефремов, Александр Тютин-Описание: В недалеком будущем команда специального назначения получает новое важное задание, которое становится для давно уже отошедших от дел спецназовцев единственной возможностью снова увидеть бывших соратников по опасным миссиям. Тем более, что очень важные вопросы их личных взаимоотношений так и остались до конца не решенными.
Они так и не приучились называть друг друга по именам, им куда ближе прижившиеся когда-то на службе оперативные псевдонимы, но время и опыт меняют даже тех суперпрофессионалов, что всю жизнь привыкли подчиняться незыблемому и непререкаемому Параграфу. И на сверхсекретной ракетной базе, куда приводит команду высочайший приказ, им придется лицом к лицу столкнуться не только с внешней опасностью, но и друг с другом...- -Качество: DVDRip | 2 DVD9 | Sample
Контейнер: AVI
Видео Фильм первый: 720x304 (2.37:1), 25 fps, XviD build 73 ~1915 kbps avg, 0.35 bit/pixel
Видео Фильм второй: 720x304 (2.37:1), 25 fps, XviD build 73 ~1859 kbps avg, 0.34 bit/pixel
Аудио: AC3 / 5.1 / 48 kHz / 448 kbps / 16 bit-Скриншоты Media Info 1
General
Complete name : D:\Параграф_78_DVDRip\Paragraf.78.[1].2007.DVDRip.by.Дядя_Лёша.avi
Format : AVI
Format/Info : Audio Video Interleave
File size : 1.45 GiB
Duration : 1h 27mn
Overall bit rate : 2 373 Kbps
Writing application : VirtualDubMod 1.5.10.3 | www.virtualdub-fr.org || (build 2550/release)
Writing library : VirtualDubMod build 2550/release
Video
ID : 0
Format : MPEG-4 Visual
Format profile : Advanced Simple@L5
Format settings, BVOP : 1
Format settings, QPel : No
Format settings, GMC : No warppoints
Format settings, Matrix : Custom
Codec ID : XVID
Codec ID/Hint : XviD
Duration : 1h 27mn
Bit rate : 1 915 Kbps
Width : 720 pixels
Height : 304 pixels
Display aspect ratio : 2.35:1
Frame rate : 25.000 fps
Color space : YUV
Chroma subsampling : 4:2:0
Bit depth : 8 bits
Scan type : Progressive
Compression mode : Lossy
Bits/(Pixel*Frame) : 0.350
Stream size : 1.17 GiB (81%)
Writing library : XviD 73
Audio
ID : 1
Format : AC-3
Format/Info : Audio Coding 3
Mode extension : CM (complete main)
Codec ID : 2000
Duration : 1h 27mn
Bit rate mode : Constant
Bit rate : 448 Kbps
Channel(s) : 6 channels
Channel positions : Front: L C R, Side: L R, LFE
Sampling rate : 48.0 KHz
Bit depth : 16 bits
Compression mode : Lossy
Stream size : 281 MiB (19%)
Alignment : Split accross interleaves
Interleave, duration : 40 ms (1.00 video frame)
Interleave, preload duration : 500 ms
Media Info 2
Общее
Полное имя : D:\Параграф_78_DVDRip\Paragraf.78.[2].2007.DVDRip.by.Дядя_Лёша.avi
Формат : AVI
Формат/Информация : Audio Video Interleave
Размер файла : 1,45 Гбайт
Продолжительность : 1 ч. 29 м.
Общий поток : 2317 Кбит/сек
Программа кодирования : VirtualDubMod 1.5.10.3 | www.virtualdub-fr.org || (build 2550/release)
Библиотека кодирования : VirtualDubMod build 2550/release
Видео
Идентификатор : 0
Формат : MPEG-4 Visual
Профиль формата : Advanced Simple@L5
Параметр BVOP формата : 1
Параметр QPel формата : Нет
Параметр GMC формата : Без точки перехода
Параметр матрицы формата : Выборочная
Идентификатор кодека : XVID
Идентификатор кодека/Подсказка : XviD
Продолжительность : 1 ч. 29 м.
Битрейт : 1859 Кбит/сек
Ширина : 720 пикселей
Высота : 304 пикселя
Соотношение сторон : 2,35:1
Частота кадров : 25,000 кадров/сек
Цветовое пространство : YUV
Субдискретизация насыщенности : 4:2:0
Битовая глубина : 8 бит
Тип развёртки : Прогрессивная
Метод сжатия : С потерями
Бит/(Пиксели*Кадры) : 0.340
Размер потока : 1,17 Гбайт (80%)
Библиотека кодирования : XviD 73
Аудио
Идентификатор : 1
Формат : AC-3
Формат/Информация : Audio Coding 3
Расширение режима : CM (complete main)
Параметр Endianness формата : Big
Идентификатор кодека : 2000
Продолжительность : 1 ч. 29 м.
Вид битрейта : Постоянный
Битрейт : 448 Кбит/сек
Каналы : 6 каналов
Расположение каналов : Front: L C R, Side: L R, LFE
Частота : 48,0 КГц
Битовая глубина : 16 бит
Метод сжатия : С потерями
Размер потока : 288 Мбайт (19%)
Выравнивание : Разделение по промежуткам
Продолжительность промежутка : 40 мс. (1,00 видеокадр)
Время предзагрузки промежутка : 500 мс.
Скачать

Скачать торрент!

Как скачивать? · Что такое торрент? · Рейтинг и ограничения

Сайт не распространяет и не хранит электронные версии произведений, а лишь предоставляет доступ к создаваемому пользователями каталогу ссылок на торрент-файлы, которые содержат только списки хеш-сумм

[Профиль] [ЛС]
Показать сообщения:    
Ответить на тему

Текущее время: Сегодня 21:58

Часовой пояс: GMT + 4



Вы не можете начинать темы
Вы не можете отвечать на сообщения
Вы не можете редактировать свои сообщения
Вы не можете удалять свои сообщения
Вы не можете голосовать в опросах
Вы не можете прикреплять файлы к сообщениям
Вы не можете скачивать файлы