Планета обезьян: Революция / Dawn of the Planet of the Apes (Мэтт Ривз / Matt Reeves) [2014, США, фантастика, боевик, драма, BDRip-AVC] Dub (Rus) + Dub (Ukr) + AVO (Ю.Живов) + Original (Eng) + Subs

Ответить на тему
 
Автор Сообщение

user ®

Стаж: 7 лет 7 месяцев

Сообщений: 20008

Пост Пост: #1 от 06-Дек-2014 15:00

[Цитировать]

Планета обезьян: Революция / Dawn of the Planet of the Apes
«Молитесь за мир, готовьтесь к войне»
- Страна: США | Chernin Entertainment, Ingenious Media, TSG Entertainment
Жанр: фантастика, боевик, драма
Год выпуска: 2014
Продолжительность: 02:10:24.
Перевод #1: Профессиональный (полное дублирование) - Русский / Blu-Ray CEE
Перевод #2: Профессиональный (полное дублирование) - Украинский / Blu-Ray CEE | отдельно
Перевод #3: Авторский (одноголосый закадровый) - Юрий Живов | отдельно
Субтитры: Русские (полные, форсированные), Украинские (полные, форсированные), Английские (полные, форсированные).
Оригинальная аудиодорожка: Английская
Навигация по главам: Присутствует (40 глав)
Режиссер: Мэтт Ривз / Matt Reeves
В ролях: Энди Серкис, Джейсон Кларк, Гари Олдман, Кери Рассел, Тоби Кеббелл, Коди Смит-МакФи, Кирк Асеведо, Ник Тёрстон, Терри Нотари, Карин Коновал.
Описание: Численность генетически модифицированных обезьян, возглавляемых Цезарем, продолжает увеличиваться, но обезьянам угрожают люди, которым удалось выжить во время ужасной эпидемии десятилетней давности. Поначалу между соперниками устанавливается хрупкий мир, но он оказывается недолговечным. Обезьяны и люди находятся на грани войны, в ходе которой станет понятно, кто из них в будущем станет безраздельно править планетой.

Качество: BDRip-AVC => Сэмпл | исх. Планета обезьян: Революция / Dawn of the Planet of the Apes (2014) Blu-ray CEE 1080p AVC DTS 5.1-NiP - HDCLUB
Формат видео: MKV
Видео: 1132x612p (1.85:1), 23,976 fps, H.264 ~3 034 kbps avg, 0.178 bit/pixel
Аудио #1: 48 kHz, AC3, 3/2 (L,C,R,l,r) + LFE ch, ~448.00 kbps avg | Профессиональный (полное дублирование) - Русский / Blu-Ray CEE
Аудио #2: 48 kHz, AC3, 3/2 (L,C,R,l,r) + LFE ch, ~448.00 kbps avg | Профессиональный (полное дублирование) - Украинский / Blu-Ray CEE | отдельно
Аудио #3: 48 kHz, AC3, 3/2 (L,C,R,l,r) + LFE ch, ~448.00 kbps avg | Авторский (одноголосый закадровый) - Юрий Живов | отдельно
Аудио #4: 48 kHz, AC3, 3/2 (L,C,R,l,r) + LFE ch, ~448.00 kbps avg | Оригинал (английский)
Формат субтитров: softsub (SRT)
MediaInfo | log x264
log x264
raw [info]: 1132x612p 1:1 @ 24000/1001 fps (cfr)
x264 [info]: using SAR=1/1
x264 [info]: using cpu capabilities: MMX2 SSE2Fast SSSE3 SSE4.2 AVX
x264 [info]: profile High, level 4.1
x264 [info]: cabac=1 ref=11 deblock=1:-2:-1 analyse=0x3:0x133 me=umh subme=11 psy=1 fade_compensate=0.00 psy_rd=1.00:0.00 mixed_ref=1 me_range=32 chroma_me=1 trellis=2 8x8dct=1 cqm=0 deadzone=21,11 fast_pskip=0 chroma_qp_offset=-2 threads=6 lookahead_threads=1 sliced_threads=0 nr=0 decimate=1 interlaced=0 bluray_compat=0 constrained_intra=0 fgo=0 bframes=16 b_pyramid=2 b_adapt=2 b_bias=0 direct=1 weightb=1 open_gop=0 weightp=2 keyint=250 keyint_min=23 scenecut=40 intra_refresh=0 rc_lookahead=40 rc=crf mbtree=0 crf=19.1000 qcomp=0.70 qpmin=0 qpmax=69 qpstep=4 vbv_maxrate=50000 vbv_bufsize=62500 crf_max=0.0 nal_hrd=none filler=0 ip_ratio=1.20 pb_ratio=1.20 aq=3:0.95
x264 [info]: frame I:1242 Avg QP:16.14 size: 78954
x264 [info]: frame P:37125 Avg QP:17.47 size: 31001
x264 [info]: frame B:149228 Avg QP:18.80 size: 11518
x264 [info]: consecutive B-frames: 1.1% 3.3% 3.2% 16.4% 16.3% 45.0% 6.1% 2.8% 1.3% 0.9% 0.7% 1.1% 0.4% 0.4% 0.1% 0.2% 0.5%
x264 [info]: mb I I16..4: 6.6% 77.9% 15.5%
x264 [info]: mb P I16..4: 0.3% 7.6% 1.2% P16..4: 29.3% 35.7% 15.2% 2.2% 0.2% skip: 8.4%
x264 [info]: mb B I16..4: 0.0% 0.8% 0.2% B16..8: 34.5% 22.4% 4.0% direct: 4.7% skip:33.3% L0:45.1% L1:45.1% BI: 9.8%
x264 [info]: 8x8 transform intra:81.2% inter:57.4%
x264 [info]: coded y,uvDC,uvAC intra: 90.2% 87.5% 64.8% inter: 24.4% 18.8% 2.1%
x264 [info]: i16 v,h,dc,p: 25% 11% 10% 55%
x264 [info]: i8 v,h,dc,ddl,ddr,vr,hd,vl,hu: 11% 6% 6% 11% 15% 14% 14% 12% 13%
x264 [info]: i4 v,h,dc,ddl,ddr,vr,hd,vl,hu: 33% 5% 5% 7% 11% 10% 10% 8% 9%
x264 [info]: i8c dc,h,v,p: 39% 25% 19% 17%
x264 [info]: Weighted P-Frames: Y:6.8% UV:4.2%
x264 [info]: ref P L0: 43.2% 8.6% 17.4% 7.3% 6.2% 4.6% 4.1% 2.3% 2.3% 1.9% 1.9% 0.2% 0.0%
x264 [info]: ref B L0: 67.8% 12.5% 6.5% 3.7% 2.8% 2.3% 1.9% 1.5% 0.8% 0.3%
x264 [info]: ref B L1: 92.0% 8.0%
x264 [info]: kb/s:3034.39
encoded 187595 frames, 2.89 fps, 3034.39 kb/s
General
Unique ID : 190749342644879815565107625172876133712 (0x8F80FCB1BF170CC9A3234E2D64400550)
Complete name : Dawn.of.the.Planet.of.the.Apes.2014.BDRip-AVC.Rus.Eng.Subs.by.zOJIOtOi.mkv
Format : Matroska
Format version : Version 4 / Version 2
File size : 3.58 GiB
Duration : 2h 10mn
Overall bit rate : 3 933 Kbps
Encoded date : UTC 2014-11-30 10:54:36
Writing application : mkvmerge v7.0.0 ('Where We Going') 64bit built on Jun 9 2014 15:16:27
Writing library : libebml v1.3.0 + libmatroska v1.4.1
DURATION : 02:09:23.296000000
NUMBER_OF_FRAMES : 878
NUMBER_OF_BYTES : 36271
_STATISTICS_WRITING_APP : mkvmerge v7.0.0 ('Where We Going') 64bit built on Jun 9 2014 15:16:27
_STATISTICS_WRITING_DATE_UTC : 2014-11-30 10:54:36
_STATISTICS_TAGS : BPS DURATION NUMBER_OF_FRAMES NUMBER_OF_BYTES
Attachment : Yes
Video
ID : 1
Format : AVC
Format/Info : Advanced Video Codec
Format profile : High@L4.1
Format settings, CABAC : Yes
Format settings, ReFrames : 11 frames
Codec ID : V_MPEG4/ISO/AVC
Duration : 2h 10mn
Bit rate : 2 959 Kbps
Width : 1 132 pixels
Height : 612 pixels
Display aspect ratio : 1.85:1
Frame rate mode : Constant
Frame rate : 23.976 fps
Color space : YUV
Chroma subsampling : 4:2:0
Bit depth : 8 bits
Scan type : Progressive
Bits/(Pixel*Frame) : 0.178
Stream size : 2.69 GiB (75%)
Title : Dawn.of.the.Planet.of.the.Apes.2014.BDRip-AVC.by.zOJIOtOi
Writing library : x264 core 142 r2453kMod ea0ca51
Encoding settings : cabac=1 / ref=11 / deblock=1:-2:-1 / analyse=0x3:0x133 / me=umh / subme=11 / psy=1 / fade_compensate=0.00 / psy_rd=1.00:0.00 / mixed_ref=1 / me_range=32 / chroma_me=1 / trellis=2 / 8x8dct=1 / cqm=0 / deadzone=21,11 / fast_pskip=0 / chroma_qp_offset=-2 / threads=6 / lookahead_threads=1 / sliced_threads=0 / nr=0 / decimate=1 / interlaced=0 / bluray_compat=0 / constrained_intra=0 / fgo=0 / bframes=16 / b_pyramid=2 / b_adapt=2 / b_bias=0 / direct=1 / weightb=1 / open_gop=0 / weightp=2 / keyint=250 / keyint_min=23 / scenecut=40 / intra_refresh=0 / rc_lookahead=40 / rc=crf / mbtree=0 / crf=19.1000 / qcomp=0.70 / qpmin=0 / qpmax=69 / qpstep=4 / vbv_maxrate=50000 / vbv_bufsize=62500 / crf_max=0.0 / nal_hrd=none / filler=0 / ip_ratio=1.20 / pb_ratio=1.20 / aq=3:0.95
Language : English
Default : Yes
Forced : No
DURATION : 02:10:24.275000000
NUMBER_OF_FRAMES : 187595
NUMBER_OF_BYTES : 2967735841
_STATISTICS_WRITING_APP : mkvmerge v7.0.0 ('Where We Going') 64bit built on Jun 9 2014 15:16:27
_STATISTICS_WRITING_DATE_UTC : 2014-11-30 10:54:36
_STATISTICS_TAGS : BPS DURATION NUMBER_OF_FRAMES NUMBER_OF_BYTES
Color primaries : BT.709
Transfer characteristics : BT.709
Matrix coefficients : BT.709
Audio #1
ID : 2
Format : AC-3
Format/Info : Audio Coding 3
Mode extension : CM (complete main)
Format settings, Endianness : Big
Codec ID : A_AC3
Duration : 2h 10mn
Bit rate mode : Constant
Bit rate : 448 Kbps
Channel(s) : 6 channels
Channel positions : Front: L C R, Side: L R, LFE
Sampling rate : 48.0 KHz
Bit depth : 16 bits
Compression mode : Lossy
Stream size : 418 MiB (11%)
Title : Профессиональный (полное дублирование) | DD 5.1 @ 448 kbps
Language : Russian
Default : Yes
Forced : No
Audio #2
ID : 3
Format : AC-3
Format/Info : Audio Coding 3
Mode extension : CM (complete main)
Format settings, Endianness : Big
Codec ID : A_AC3
Duration : 2h 10mn
Bit rate mode : Constant
Bit rate : 448 Kbps
Channel(s) : 6 channels
Channel positions : Front: L C R, Side: L R, LFE
Sampling rate : 48.0 KHz
Bit depth : 16 bits
Compression mode : Lossy
Stream size : 418 MiB (11%)
Title : Оригинал (английский) | DD 5.1 @ 448 kbps
Language : English
Default : No
Forced : No
Text #1
ID : 4
Format : UTF-8
Codec ID : S_TEXT/UTF8
Codec ID/Info : UTF-8 Plain Text
Title : Full
Language : Russian
Default : No
Forced : No
Text #2
ID : 5
Format : UTF-8
Codec ID : S_TEXT/UTF8
Codec ID/Info : UTF-8 Plain Text
Title : Forced
Language : Russian
Default : Yes
Forced : No
Text #3
ID : 6
Format : UTF-8
Codec ID : S_TEXT/UTF8
Codec ID/Info : UTF-8 Plain Text
Title : Full
Language : Ukrainian
Default : No
Forced : No
Text #4
ID : 7
Format : UTF-8
Codec ID : S_TEXT/UTF8
Codec ID/Info : UTF-8 Plain Text
Title : Forced
Language : Ukrainian
Default : No
Forced : No
Text #5
ID : 8
Format : UTF-8
Codec ID : S_TEXT/UTF8
Codec ID/Info : UTF-8 Plain Text
Title : Full
Language : English
Default : No
Forced : No
Text #6
ID : 9
Format : UTF-8
Codec ID : S_TEXT/UTF8
Codec ID/Info : UTF-8 Plain Text
Title : Forced
Language : English
Default : No
Forced : No
Menu
00:00:00.000 : en:Chapter 01
00:03:21.159 : en:Chapter 02
00:07:34.912 : en:Chapter 03
00:12:36.547 : en:Chapter 04
00:16:23.565 : en:Chapter 05
00:18:47.042 : en:Chapter 06
00:21:52.477 : en:Chapter 07
00:25:26.691 : en:Chapter 08
00:29:45.867 : en:Chapter 09
00:31:50.617 : en:Chapter 10
00:36:43.743 : en:Chapter 11
00:39:07.553 : en:Chapter 12
00:40:57.163 : en:Chapter 13
00:44:12.232 : en:Chapter 14
00:48:11.138 : en:Chapter 15
00:50:31.528 : en:Chapter 16
00:53:48.016 : en:Chapter 17
00:57:25.316 : en:Chapter 18
01:01:18.466 : en:Chapter 19
01:02:35.376 : en:Chapter 20
01:04:24.068 : en:Chapter 21
01:06:21.727 : en:Chapter 22
01:09:31.333 : en:Chapter 23
01:13:56.974 : en:Chapter 24
01:17:17.924 : en:Chapter 25
01:20:53.390 : en:Chapter 26
01:23:28.753 : en:Chapter 27
01:26:08.997 : en:Chapter 28
01:28:19.252 : en:Chapter 29
01:33:24.390 : en:Chapter 30
01:35:53.122 : en:Chapter 31
01:38:38.621 : en:Chapter 32
01:40:42.536 : en:Chapter 33
01:44:07.532 : en:Chapter 34
01:46:05.317 : en:Chapter 35
01:47:54.468 : en:Chapter 36
01:52:13.768 : en:Chapter 37
01:56:27.480 : en:Chapter 38
02:00:31.015 : en:Chapter 39
02:01:35.037 : en:Chapter 40
Source vs rip by zOJIOtOi vs rip by IVAN@190282 vs rip by HQCLUB
source

rip by zOJIOtOi

[url=http://***/forum/viewtopic.php?t=4859736]rip by IVAN@190282 2.94 GB[/url]

[url=http://***/forum/viewtopic.php?t=4882747]rip by HQCLUB 4.62 GB[/url]

НЕДОКРОП 1 ПИКСЕЛЬ СВЕРХУ
+ http://screenshotcomparison.com/comparison/102957
Скриншоты Релиз групп:
Скачать

Скачать торрент!

Как скачивать? · Что такое торрент? · Рейтинг и ограничения

Сайт не распространяет и не хранит электронные версии произведений, а лишь предоставляет доступ к создаваемому пользователями каталогу ссылок на торрент-файлы, которые содержат только списки хеш-сумм

[Профиль] [ЛС]
Показать сообщения:    
Ответить на тему

Текущее время: Сегодня 21:53

Часовой пояс: GMT + 4



Вы не можете начинать темы
Вы не можете отвечать на сообщения
Вы не можете редактировать свои сообщения
Вы не можете удалять свои сообщения
Вы не можете голосовать в опросах
Вы не можете прикреплять файлы к сообщениям
Вы не можете скачивать файлы