Геракл / Hercules (Бретт Рэтнер / Brett Ratner) [2014, США, Боевик, приключения, фэнтези, BDRip-AVC] [Theatrical] DUB + Sub Rus, Eng + Original Eng

Ответить на тему
 
Автор Сообщение

user ®

Стаж: 7 лет 7 месяцев

Сообщений: 20008

Пост Пост: #1 от 06-Дек-2014 15:00

[Цитировать]

Геракл / HerculesTheatrical«Множество врагов. Двенадцать подвигов. Один герой»- Страна: США
Жанр: Боевик, приключения, фэнтези
Год выпуска: 2014
Продолжительность: 01:38:04
Перевод: Профессиональный (дублированный) Лицензия
Cубтитры: Rus (Forced, Full) Eng
Оригинальная аудиодорожка: английский
Режиссер: Бретт Рэтнер / Brett Ratner
В ролях:
Дуэйн Джонсон / Dwayne Johnson
Аксель Хенни, Джозеф Файнс, Джон Хёрт, Иэн МакШейн, Роберт Мэйллет, Руфус Сьюэлл, Ирина Шейк, Ингрид Болсай Бердал, Джо Андерсон...-ОписаниеБолее тысячи лет назад измученная душа скиталась по Земле, полубог, получеловек — Геракл — могучий сын царя богов Зевса, совершив все 12 подвигов, потерял семью и теперь находит утешение только в кровавых битвах.
За эти годы он собирает вокруг себя шестерых таких же потерянных воинов, единственным смыслом жизни для которых стали сражения и присутствие смертельной опасности. Эти мужчины и женщина никогда не задают вопрос, где, почему или с кем они идут сражаться; только, сколько им заплатят. Зная это, фракийский царь Котис нанимает этих воинов, чтобы они обучили его солдат и сделали из них самую сильную и великую армию всех времен.
-Сэмпл

IMDb: 6.30 (37 952)
Качество видео: BDRip-AVC Hercules.2014.Theatrical.BDRemux.(1080p).ExKinoRay
Формат видео: MKV
Видео: AVC 3990 Kbps 1104 x 460 (2.400) 23.976 fps
Аудио: AC-3 448 Kbps 6 channels, 48.0 KHz DUB [Исх. Dolby Digital 5.1 (640 kbps)]]
Аудио 2: AC-3 448 Kbps 6 channels, 48.0 KHz Eng
MediaInfo | Log
Log
x264 [info]: frame I:1313 Avg QP:15.42 size:103860
x264 [info]: frame P:36257 Avg QP:17.03 size: 38571
x264 [info]: frame B:103519 Avg QP:19.59 size: 14278
x264 [info]: consecutive B-frames: 3.6% 4.2% 16.4% 30.2% 17.0% 21.3% 3.9% 1.6% 0.6% 0.4% 0.3% 0.2% 0.3%
x264 [info]: mb I I16..4: 8.4% 66.7% 24.9%
x264 [info]: mb P I16..4: 1.3% 18.2% 2.8% P16..4: 23.9% 29.2% 15.1% 3.6% 0.5% skip: 5.5%
x264 [info]: mb B I16..4: 0.2% 2.6% 0.4% B16..8: 31.3% 24.8% 5.8% direct: 8.3% skip:26.5% L0:41.0% L1:40.2% BI:18.8%
x264 [info]: 8x8 transform intra:80.1% inter:54.4%
x264 [info]: coded y,uvDC,uvAC intra: 91.0% 95.3% 86.3% inter: 35.0% 34.8% 15.2%
x264 [info]: i16 v,h,dc,p: 43% 9% 9% 39%
x264 [info]: i8 v,h,dc,ddl,ddr,vr,hd,vl,hu: 10% 8% 10% 9% 12% 13% 12% 12% 14%
x264 [info]: i4 v,h,dc,ddl,ddr,vr,hd,vl,hu: 12% 7% 7% 8% 15% 14% 13% 11% 13%
x264 [info]: i8c dc,h,v,p: 52% 16% 15% 17%
x264 [info]: Weighted P-Frames: Y:9.7% UV:7.4%
x264 [info]: ref P L0: 48.5% 13.4% 14.9% 5.8% 4.5% 3.1% 2.8% 1.6% 1.5% 1.4% 1.1% 1.1% 0.3% 0.0%
x264 [info]: ref B L0: 73.3% 11.5% 5.1% 3.0% 1.9% 1.6% 1.5% 0.9% 0.7% 0.5% 0.2%
x264 [info]: ref B L1: 93.1% 6.9%
x264 [info]: kb/s:4095.90
x264 [total]: encoded 141089 frames, 9.27 fps, 4095.90 kb/s, duration 4:13:34.13
Format : Matroska
Format version : Version 4 / Version 2
File size : 3.42 GiB
Duration : 1h 38mn
Overall bit rate : 4 994 Kbps
Encoded date : UTC 2014-12-05 23:27:08
Writing application : mkvmerge v6.7.0 ('Back to the Ground') 32bit built on Jan 8 2014 15:03:17
Writing library : libebml v1.3.0 + libmatroska v1.4.1
Video
ID : 1
Format : AVC
Format/Info : Advanced Video Codec
Format profile : High@L4.1
Format settings, CABAC : Yes
Format settings, ReFrames : 12 frames
Codec ID : V_MPEG4/ISO/AVC
Duration : 1h 38mn
Bit rate : 3 999 Kbps
Width : 1 104 pixels
Height : 460 pixels
Display aspect ratio : 2.40:1
Frame rate mode : Constant
Frame rate : 23.976 fps
Color space : YUV
Chroma subsampling : 4:2:0
Bit depth : 8 bits
Scan type : Progressive
Bits/(Pixel*Frame) : 0.328
Stream size : 2.74 GiB (80%)
Title : Hercules [***]
Writing library : x264 core 142 r2453kMod ea0ca51
Encoding settings : cabac=1 / ref=12 / deblock=1:-2:-2 / analyse=0x3:0x133 / me=umh / subme=11 / psy=1 / fade_compensate=0.00 / psy_rd=1.00:0.05 / mixed_ref=1 / me_range=32 / chroma_me=1 / trellis=2 / 8x8dct=1 / cqm=0 / deadzone=21,11 / fast_pskip=0 / chroma_qp_offset=-3 / threads=12 / lookahead_threads=3 / sliced_threads=0 / nr=0 / decimate=1 / interlaced=0 / bluray_compat=0 / constrained_intra=0 / fgo=0 / bframes=12 / b_pyramid=2 / b_adapt=2 / b_bias=0 / direct=1 / weightb=1 / open_gop=0 / weightp=2 / keyint=250 / keyint_min=23 / scenecut=40 / intra_refresh=0 / rc_lookahead=60 / rc=crf / mbtree=0 / crf=16.8000 / qcomp=0.60 / qpmin=0 / qpmax=69 / qpstep=4 / vbv_maxrate=50000 / vbv_bufsize=62500 / crf_max=0.0 / nal_hrd=none / filler=0 / ip_ratio=1.40 / pb_ratio=1.30 / aq=3:0.90
Language : English
Default : Yes
Forced : No
Audio #1
ID : 2
Format : AC-3
Format/Info : Audio Coding 3
Mode extension : CM (complete main)
Format settings, Endianness : Big
Codec ID : A_AC3
Duration : 1h 38mn
Bit rate mode : Constant
Bit rate : 448 Kbps
Channel(s) : 6 channels
Channel positions : Front: L C R, Side: L R, LFE
Sampling rate : 48.0 KHz
Bit depth : 16 bits
Compression mode : Lossy
Stream size : 314 MiB (9%)
Title : Dub 448 [Icx Dolby Digital 5.1 (640 kbps)]
Language : Russian
Default : Yes
Forced : No
Audio #2
ID : 3
Format : AC-3
Format/Info : Audio Coding 3
Mode extension : CM (complete main)
Format settings, Endianness : Big
Codec ID : A_AC3
Duration : 1h 38mn
Bit rate mode : Constant
Bit rate : 448 Kbps
Channel(s) : 6 channels
Channel positions : Front: L C R, Side: L R, LFE
Sampling rate : 48.0 KHz
Bit depth : 16 bits
Compression mode : Lossy
Stream size : 314 MiB (9%)
Title : Original
Language : English
Default : No
Forced : No
Text #1
ID : 4
Format : UTF-8
Codec ID : S_TEXT/UTF8
Codec ID/Info : UTF-8 Plain Text
Title : Forced
Language : Russian
Default : Yes
Forced : No
Text #2
ID : 5
Format : UTF-8
Codec ID : S_TEXT/UTF8
Codec ID/Info : UTF-8 Plain Text
Title : Full
Language : Russian
Default : No
Forced : No
Text #3
ID : 6
Format : UTF-8
Codec ID : S_TEXT/UTF8
Codec ID/Info : UTF-8 Plain Text
Language : English
Default : No
Forced : No
Text #4
ID : 7
Format : UTF-8
Codec ID : S_TEXT/UTF8
Codec ID/Info : UTF-8 Plain Text
Title : SHD
Language : English
Default : No
Forced : No
Menu
00:00:00.000 : :Chapter 01
00:05:00.000 : :Chapter 02
00:10:00.000 : :Chapter 03
00:15:00.000 : :Chapter 04
00:20:00.000 : :Chapter 05
00:25:00.000 : :Chapter 06
00:30:00.000 : :Chapter 07
00:35:00.000 : :Chapter 08
00:40:00.000 : :Chapter 09
00:45:00.000 : :Chapter 10
00:50:00.000 : :Chapter 11
00:55:00.000 : :Chapter 12
01:00:00.000 : :Chapter 13
01:05:00.000 : :Chapter 14
01:10:00.000 : :Chapter 15
01:15:00.000 : :Chapter 16
01:20:00.000 : :Chapter 17
01:25:00.000 : :Chapter 18
01:30:00.000 : :Chapter 19
01:35:00.000 : :Chapter 20
Скриншоты | Rip vs Source
Скачать

Скачать торрент!

Как скачивать? · Что такое торрент? · Рейтинг и ограничения

Сайт не распространяет и не хранит электронные версии произведений, а лишь предоставляет доступ к создаваемому пользователями каталогу ссылок на торрент-файлы, которые содержат только списки хеш-сумм

[Профиль] [ЛС]
Показать сообщения:    
Ответить на тему

Текущее время: Сегодня 14:35

Часовой пояс: GMT + 4



Вы не можете начинать темы
Вы не можете отвечать на сообщения
Вы не можете редактировать свои сообщения
Вы не можете удалять свои сообщения
Вы не можете голосовать в опросах
Вы не можете прикреплять файлы к сообщениям
Вы не можете скачивать файлы