Мятежник / The Rebel / Dong Mau Anh Hung (Чарли Нгуен / Charlie Nguyen) [2007, Вьетнам, боевик, драма, мелодрама, HDRip] DVO + 2x VO + original Vie + Sub (rus, fre, eng)

Ответить на тему
 
Автор Сообщение

user ®

Стаж: 13 лет

Сообщений: 15071

Пост Пост: #1 от 06-Дек-2014 06:40

[Цитировать]

Мятежник / The Rebel / Dong Mau Anh Hung- -Страна: Вьетнам
Жанр: боевик, драма, мелодрама
Год выпуска: 2007
Продолжительность: 01:44:14-Перевод: Любительский (двухголосый закадровый) [Ворон и Wenlana]
Перевод: Одноголосый закадровый [Дмитрий Есарев]
Перевод: Одноголосый закадровый [Mantis]-Cубтитры: русские, француские, английские [отдельно]
Оригинальная аудиодорожка: вьетнамский [отдельно]
Режиссер: Чарли Нгуен / Charlie Nguyen
В ролях: Джонни Нгуен, Нго Тхань Ван, Дастин Нгуен, Нгуен Тянь Тин, Стефани Гэйгер, Дэвид Минетти, Буй Тхи Ноан...
Описание: 1922 год. Вьетнам под властью Франции. Народное сопротивление ведет борьбу с иноземными захватчиками. На стороне Франции есть и местные наемники. Французский секретный агент вьетнамского происхождения Кыонг разрывается между своим растущим патриотизмом, с одной стороны, и лояльностью к обучившим его французам и троим товарищам по команде, с другой.
Релиз от -
Сэмпл: http://multi-up.com/1017679
Качество видео: HDRip
Формат видео: AVI
Видео: MPEG-4 Visual at 1902 Кбит/сек; 704 x 400 (1.760) at 25.000 fps
Аудио: AC-3 at 448 Кбит/сек; 6 каналов, 48,0 КГц [DVO]
Аудио: AC-3 at 448 Кбит/сек; 6 каналов, 48,0 КГц [VO]
Аудио: AC-3 at 192 Кбит/сек; 2 канала, 48,0 КГц [VO]
Аудио: AC-3 at 448 Кбит/сек; 6 каналов, 48,0 КГц [Vie] - отдельно
Автор -
MediaInfo
Общее
Полное имя : D:\Фильмы\Азиатские\Мятежник\The Rebel.2007.HDRip.XviD.2200MB.rip by [Assassin's Creed]\The Rebel.2007.HDRip.XviD.2200MB.rip by [Assassin's Creed].avi
Формат : AVI
Формат/Информация : Audio Video Interleave
Профиль формата : OpenDML
Размер файла : 2,19 Гбайт
Продолжительность : 1 ч. 44 м.
Общий поток : 3014 Кбит/сек
Программа кодирования : VirtualDubMod 1.5.10.2 (build 2540/release)
Библиотека кодирования : VirtualDubMod build 2540/release
Видео
Идентификатор : 0
Формат : MPEG-4 Visual
Профиль формата : Advanced Simple@L5
Параметр BVOP формата : 1
Параметр QPel формата : Нет
Параметр GMC формата : Без точки перехода
Параметр матрицы формата : Default (MPEG)
Идентификатор кодека : XVID
Идентификатор кодека/Подсказка : XviD
Продолжительность : 1 ч. 44 м.
Битрейт : 1902 Кбит/сек
Ширина : 704 пикселя
Высота : 400 пикселей
Соотношение сторон : 16:9
Частота кадров : 25,000 кадров/сек
Цветовое пространство : YUV
Субдискретизация насыщенности : 4:2:0
Битовая глубина : 8 бит
Тип развёртки : Прогрессивная
Метод сжатия : С потерями
Бит/(Пиксели*Кадры) : 0.270
Размер потока : 1,38 Гбайт (63%)
Библиотека кодирования : XviD 1.2.1 (UTC 2008-12-04)
Аудио #1
Идентификатор : 1
Формат : AC-3
Формат/Информация : Audio Coding 3
Расширение режима : CM (complete main)
Параметр Endianness формата : Big
Идентификатор кодека : 2000
Продолжительность : 1 ч. 44 м.
Вид битрейта : Постоянный
Битрейт : 448 Кбит/сек
Каналы : 6 каналов
Расположение каналов : Front: L C R, Side: L R, LFE
Частота : 48,0 КГц
Битовая глубина : 16 бит
Метод сжатия : С потерями
Размер потока : 334 Мбайт (15%)
Выравнивание : Разделение по промежуткам
Продолжительность промежутка : 40 мс. (1,00 видеокадр)
Время предзагрузки промежутка : 500 мс.
Аудио #2
Идентификатор : 2
Формат : AC-3
Формат/Информация : Audio Coding 3
Расширение режима : CM (complete main)
Параметр Endianness формата : Big
Идентификатор кодека : 2000
Продолжительность : 1 ч. 44 м.
Вид битрейта : Постоянный
Битрейт : 448 Кбит/сек
Каналы : 6 каналов
Расположение каналов : Front: L C R, Side: L R, LFE
Частота : 48,0 КГц
Битовая глубина : 16 бит
Метод сжатия : С потерями
Размер потока : 334 Мбайт (15%)
Выравнивание : Разделение по промежуткам
Продолжительность промежутка : 40 мс. (1,00 видеокадр)
Время предзагрузки промежутка : 500 мс.
Аудио #3
Идентификатор : 3
Формат : AC-3
Формат/Информация : Audio Coding 3
Расширение режима : CM (complete main)
Параметр Endianness формата : Big
Идентификатор кодека : 2000
Продолжительность : 1 ч. 44 м.
Вид битрейта : Постоянный
Битрейт : 192 Кбит/сек
Каналы : 2 канала
Расположение каналов : Front: L R
Частота : 48,0 КГц
Битовая глубина : 16 бит
Метод сжатия : С потерями
Размер потока : 143 Мбайт (6%)
Выравнивание : Разделение по промежуткам
Продолжительность промежутка : 40 мс. (1,00 видеокадр)
Время предзагрузки промежутка : 500 мс.
Общее
Полное имя : D:\Фильмы\Азиатские\Мятежник\The Rebel.2007.HDRip.XviD.2200MB.rip by [Assassin's Creed]\The Rebel.2007.HDRip.XviD.2200MB.rip by [Assassin's Creed].eng.srt
Формат : SubRip
Размер файла : 35,8 Кбайт
Текст
Формат : SubRip
Метод сжатия : Без потерь
Общее
Полное имя : D:\Фильмы\Азиатские\Мятежник\The Rebel.2007.HDRip.XviD.2200MB.rip by [Assassin's Creed]\The Rebel.2007.HDRip.XviD.2200MB.rip by [Assassin's Creed].fre.srt
Формат : SubRip
Размер файла : 2,79 Кбайт
Текст
Формат : SubRip
Метод сжатия : Без потерь
Общее
Полное имя : D:\Фильмы\Азиатские\Мятежник\The Rebel.2007.HDRip.XviD.2200MB.rip by [Assassin's Creed]\The Rebel.2007.HDRip.XviD.2200MB.rip by [Assassin's Creed].rus.srt
Формат : SubRip
Размер файла : 47,9 Кбайт
Текст
Формат : SubRip
Метод сжатия : Без потерь
Общее
Полное имя : D:\Фильмы\Азиатские\Мятежник\The Rebel.2007.HDRip.XviD.2200MB.rip by [Assassin's Creed]\The Rebel.2007.HDRip.XviD.2200MB.Vie.rip by [Assassin's Creed].ac3
Формат : AC-3
Формат/Информация : Audio Coding 3
Размер файла : 334 Мбайт
Продолжительность : 1 ч. 44 м.
Режим общего битрейта : Постоянный
Общий поток : 448 Кбит/сек
Аудио
Формат : AC-3
Формат/Информация : Audio Coding 3
Расширение режима : CM (complete main)
Параметр Endianness формата : Big
Продолжительность : 1 ч. 44 м.
Вид битрейта : Постоянный
Битрейт : 448 Кбит/сек
Каналы : 6 каналов
Расположение каналов : Front: L C R, Side: L R, LFE
Частота : 48,0 КГц
Битовая глубина : 16 бит
Метод сжатия : С потерями
Размер потока : 334 Мбайт (100%)
Скриншот c названием фильма Скриншоты
Скачать

Скачать торрент! Мятежник / The Rebel / Dong Mau Anh Hung (Чарли Нгуен / Charlie Nguyen) [2007, Вьетнам, боевик, драма, мелодрама, HDRip] DVO + 2x VO + original Vie + Sub (rus, fre, eng)

Как скачивать? · Что такое торрент? · Рейтинг и ограничения

Сайт не распространяет и не хранит электронные версии произведений, а лишь предоставляет доступ к создаваемому пользователями каталогу ссылок на торрент-файлы, которые содержат только списки хеш-сумм

[Профиль] [ЛС]
Показать сообщения:    
Ответить на тему

Текущее время: Сегодня 16:31

Часовой пояс: GMT + 4



Вы не можете начинать темы
Вы не можете отвечать на сообщения
Вы не можете редактировать свои сообщения
Вы не можете удалять свои сообщения
Вы не можете голосовать в опросах
Вы не можете прикреплять файлы к сообщениям
Вы не можете скачивать файлы