Ванька Жуков (Леонид Зарубин) [1981 г., мультфильм, DVB]

Ответить на тему
 
Автор Сообщение

user ®

Стаж: 7 лет 7 месяцев

Сообщений: 20008

Пост Пост: #1 от 06-Дек-2014 00:20

[Цитировать]

Ванька Жуков
Жанр: мультфильм
Год выпуска: 1981
Продолжительность: 00:09:52
Режиссёр: Леонид Зарубин
Описание: Мультфильм о том, как 9-летний мальчик Ванька Жуков в письме к дедушке жалуется на свою тяжелую жизнь…
(по рассказу Антона Чехова)

Качество видео: DVB (Канал "ПлюсПлюс")
Формат видео: MPG
Видео: 720x576 (4:3) @ 768x576, 25.000 fps, MPEG-2 Video, ~4000 Kbps, 0.386 bits/pixel
Аудио: 48.0 KHz, MPEG-1 Audio layer 2, 2 ch, 192 Kbps
MediaInfo
GeneralComplete name : Ванька Жуков 1981 ПлюсПлюс.mpgFormat : MPEG-PSFile size : 302 MiBDuration : 9mn 52sOverall bit rate mode : VariableOverall bit rate : 4 277 Kbps
VideoID : 224 (0xE0)Format : MPEG VideoFormat version : Version 2Format profile : Main@MainFormat settings, BVOP : YesFormat settings, Matrix : CustomFormat settings, GOP : VariableFormat settings, picture structure : FrameDuration : 9mn 52sBit rate mode : VariableBit rate : 4 000 KbpsMaximum bit rate : 15.0 MbpsWidth : 720 pixelsHeight : 576 pixelsDisplay aspect ratio : 4:3Frame rate : 25.000 fpsStandard : PALColor space : YUVChroma subsampling : 4:2:0Bit depth : 8 bitsScan type : InterlacedScan order : Top Field FirstCompression mode : LossyBits/(Pixel*Frame) : 0.386Time code of first frame : 00:00:00:00Time code source : Group of pictures headerGOP, Open/Closed : OpenStream size : 282 MiB (94%)GOP, Open/Closed of first frame : Closed
AudioID : 192 (0xC0)Format : MPEG AudioFormat version : Version 1Format profile : Layer 2Duration : 9mn 52sBit rate mode : ConstantBit rate : 192 KbpsChannel(s) : 2 channelsSampling rate : 48.0 KHzCompression mode : LossyStream size : 13.6 MiB (4%)
Скриншоты Сравнение
[url=http://***/forum/viewtopic.php?t=4675299]http://***/forum/viewtopic.php?t=4675299[/url]
http://www.screenshotcomparison.com/comparison/103009
Другой трансфер.
Скачать

Скачать торрент!

Как скачивать? · Что такое торрент? · Рейтинг и ограничения

Сайт не распространяет и не хранит электронные версии произведений, а лишь предоставляет доступ к создаваемому пользователями каталогу ссылок на торрент-файлы, которые содержат только списки хеш-сумм

[Профиль] [ЛС]
Показать сообщения:    
Ответить на тему

Текущее время: Сегодня 18:30

Часовой пояс: GMT + 4



Вы не можете начинать темы
Вы не можете отвечать на сообщения
Вы не можете редактировать свои сообщения
Вы не можете удалять свои сообщения
Вы не можете голосовать в опросах
Вы не можете прикреплять файлы к сообщениям
Вы не можете скачивать файлы