Навстречу шторму / Into the Storm (Тадеус О’Салливан / Thaddeus O\'Sullivan) [2009, Великобритания, США, биография, военный, драма, HDTV 1080i] MVO + Sub Rus + Original Eng

Ответить на тему
 
Автор Сообщение

user ®

Стаж: 7 лет 7 месяцев

Сообщений: 20008

Пост Пост: #1 от 06-Дек-2014 00:20

[Цитировать]

Навстречу шторму / Into the Storm
Страна: Великобритания, США
Студия: BBC Films, Rainmark Films, HBO Films
Жанр: биография, военный, драма
Год выпуска: 2009
Продолжительность: 01:38:59
Перевод: Профессиональный (многоголосый закадровый)
Cубтитры: русские
Оригинальная аудиодорожка: английский
Режиссер: Тадеус О’Салливан / Thaddeus O'Sullivan
В ролях: Брендан Глисон, Джанет МакТир, Алексей Петренко, Айэйн Глен, Джеймс Д'Арси, Лен Кариу, Эдриан Скарборо, Патрик Мэлахайд, Билл Патерсон, Роберт Пью, Гаррик Хэгон
Описание: Биографическая драма НВО о карьере и жизни одного из самых выдающихся политических деятелей ХХ века – премьер-министре Великобритании Уинстоне Черчилле в конце Второй мировой войны. Фильм основан на реальных событиях.
Сэмпл: http://multi-up.com/1016454
Тип релиза: HDTV 1080i
Контейнер: TS
Видео: AVC, 1920х1080, 16:9, 6692 Кбит/сек, 25 fps
Аудио: (русский) AC-3, 384 Кбит/сек, 48 КГц, 6 каналов
Аудио 2: (английский) MPEG Audio, 192 Кбит/сек, 48 КГц, 2 канала
Формат субтитров: Teletext: Sub Page 888
MediaInfo
Общее
Идентификатор : 16 (0x10)
Полное имя : Into the Storm_HD (Edited).ts
Формат : MPEG-TS
Размер файла : 5,06 Гбайт
Продолжительность : 1 ч. 34 м.
Режим общего битрейта : Переменный
Общий поток : 7649 Кбит/сек
Видео
Идентификатор : 1812 (0x714)
Идентификатор меню : 812 (0x32C)
Формат : AVC
Формат/Информация : Advanced Video Codec
Профиль формата : High@L4.0
Параметр CABAC формата : Да
Параметр ReFrames формата : 4 кадра
Идентификатор кодека : 27
Продолжительность : 1 ч. 34 м.
Битрейт : 6689 Кбит/сек
Ширина : 1920 пикселей
Высота : 1080 пикселей
Соотношение сторон : 16:9
Частота кадров : 25,000 кадров/сек
Стандарт вещания : PAL
Цветовое пространство : YUV
Субдискретизация насыщенности : 4:2:0
Битовая глубина : 8 бит
Тип развёртки : MBAFF
Бит/(Пиксели*Кадры) : 0.129
Размер потока : 4,42 Гбайт (87%)
Основные цвета : BT.709
Характеристики трансфера : BT.709
Коэффициенты матрицы : BT.709
Аудио #1
Идентификатор : 3812 (0xEE4)
Идентификатор меню : 812 (0x32C)
Формат : MPEG Audio
Версия формата : Version 1
Профиль формата : Layer 2
Идентификатор кодека : 4
Продолжительность : 1 ч. 34 м.
Вид битрейта : Постоянный
Битрейт : 192 Кбит/сек
Каналы : 2 канала
Частота : 48,0 КГц
Метод сжатия : С потерями
Задержка видео : 9 мс.
Размер потока : 130 Мбайт (3%)
Язык : English
Язык, дополнительно : Clean effects
Аудио #2
Идентификатор : 4812 (0x12CC)
Идентификатор меню : 812 (0x32C)
Формат : AC-3
Формат/Информация : Audio Coding 3
Расширение режима : CM (complete main)
Параметр Endianness формата : Big
Идентификатор кодека : 6
Продолжительность : 1 ч. 34 м.
Вид битрейта : Постоянный
Битрейт : 384 Кбит/сек
Каналы : 6 каналов
Расположение каналов : Front: L C R, Side: L R, LFE
Частота : 48,0 КГц
Битовая глубина : 16 бит
Метод сжатия : С потерями
Задержка видео : 97 мс.
Размер потока : 260 Мбайт (5%)
Язык : std
Язык, дополнительно : Clean effects
Текст
Идентификатор : 63 (0x3F)-100
Идентификатор меню : 812 (0x32C)
Формат : Teletext
Меню
Идентификатор : 812 (0x32C)
Идентификатор меню : 812 (0x32C)
Продолжительность : 1 ч. 34 м.
Список : 1812 (0x714) (AVC) / 3812 (0xEE4) (MPEG Audio, English) / 4812 (0x12CC) (AC-3, std) / 63 (0x3F) ()
Язык : / English / std
Скриншоты
Скачать

Скачать торрент!

Как скачивать? · Что такое торрент? · Рейтинг и ограничения

Сайт не распространяет и не хранит электронные версии произведений, а лишь предоставляет доступ к создаваемому пользователями каталогу ссылок на торрент-файлы, которые содержат только списки хеш-сумм

[Профиль] [ЛС]
Показать сообщения:    
Ответить на тему

Текущее время: Сегодня 13:51

Часовой пояс: GMT + 4



Вы не можете начинать темы
Вы не можете отвечать на сообщения
Вы не можете редактировать свои сообщения
Вы не можете удалять свои сообщения
Вы не можете голосовать в опросах
Вы не можете прикреплять файлы к сообщениям
Вы не можете скачивать файлы