Я - Начало / I Origins (Майк Кэхилл / Mike Cahill) [2014, США, Фантастика, WEB-DL 720p] Sub Rus, Ukr, Eng + Original Eng

Ответить на тему
 
Автор Сообщение

user ®

Стаж: 7 лет 7 месяцев

Сообщений: 20008

Пост Пост: #1 от 05-Дек-2014 04:10

[Цитировать]

Я - Начало / I Origins
Страна: США
Жанр: Фантастика
Год выпуска: 2014
Продолжительность: 01:48:07
Перевод: Субтитры русские, Владимир Фадеев, Deluxe
Субтитры: английские, русские, украинские (srt)
Оригинальная аудиодорожка: английский
Режиссер: Майк Кэхилл / Mike Cahill
В ролях: Майкл Питт, Стивен Ян, Астрид Берже-Фрисби, Брит Марлинг, Дориен Маклоги, Чарльз В. Грэй, Джон Шиумо, Фараша Бэйлок, Ако, Кристофер Сантамария
Описание: Ян Грей, специалист по молекулярной биологии в области эволюции глаз, как-то раз, оставив свою лабораторию, отправляется на вечеринку. И знакомится там с таинственной незнакомкой, которая уходит от него в ночь. Но главный герой настойчив – имея в памяти лишь картину ее прекрасных глаз, он находит ее, и они влюбляются друг в друга. Их принципиально разные взгляды на жизнь лишь еще сильнее связывают их, и влюбленные клянутся оставаться вместе всегда.
Годы спустя Ян и его коллега – ученая Карен делают ошеломляющее открытие, способное обернуться серьезными последствиями. Рискуя делом всей своей жизни и своей семьей, герой фантастической драмы «Я – начало» отправляется в путешествие по миру, чтобы отыскать правду о том, что он открыл, и узнать, к чему это открытие может привести.
Сэмпл: http://rusfolder.com/42443285
Качество видео: WEB-DL 720p
Формат видео: MKV
Видео: AVC, 1280x536, 2,40:1, 23,976 kbps, ~3969 kbps avg, 0.241 bit/pixel
Аудио: AC3, 48 kHz, 6 channels, 384 kbps, english
Формат субтитров: softsub (SRT)
MediaInfo
Общее
Уникальный идентификатор : 230930330594877980435684733315262057131 (0xADBB905A2D505B0FB2BA401D8E7E0AAB)
Полное имя : D:\Torrents\Я - Начало (I Origins)\Я - Начало (I Origins).mkv
Формат : Matroska
Версия формата : Version 4 / Version 2
Размер файла : 3,35 Гбайт
Продолжительность : 1 ч. 48 м.
Общий поток : 4442 Кбит/сек
Название фильма : RARBG.COM - I.Origins.2014.720p.WEB-DL.DD5.1.H264-RARBG
Дата кодирования : UTC 2014-12-03 12:37:26
Программа кодирования : mkvmerge v6.0.0 ('Coming Up For Air') built on Jan 20 2013 09:52:00
Библиотека кодирования : libebml v1.3.0 + libmatroska v1.4.0
Видео
Идентификатор : 1
Формат : AVC
Формат/Информация : Advanced Video Codec
Профиль формата : Main@L3.1
Параметр CABAC формата : Нет
Параметр ReFrames формата : 2 кадра
Идентификатор кодека : V_MPEG4/ISO/AVC
Продолжительность : 1 ч. 48 м.
Битрейт : 3969 Кбит/сек
Ширина : 1280 пикселей
Высота : 536 пикселей
Соотношение сторон : 2,40:1
Режим частоты кадров : Постоянный
Частота кадров : 23,976 кадра/сек
Цветовое пространство : YUV
Субдискретизация насыщенности : 4:2:0
Битовая глубина : 8 бит
Тип развёртки : Прогрессивная
Бит/(Пиксели*Кадры) : 0.241
Размер потока : 3,00 Гбайт (89%)
Заголовок : I.Origins.2014.720p.WEB-DL.DD5.1.H264-RARBG
Язык : English
Default : Да
Forced : Нет
Основные цвета : BT.709
Характеристики трансфера : BT.709
Коэффициенты матрицы : BT.709
Аудио
Идентификатор : 2
Формат : AC-3
Формат/Информация : Audio Coding 3
Расширение режима : CM (complete main)
Параметр Endianness формата : Big
Идентификатор кодека : A_AC3
Продолжительность : 1 ч. 48 м.
Вид битрейта : Постоянный
Битрейт : 384 Кбит/сек
Каналы : 6 каналов
Расположение каналов : Front: L C R, Side: L R, LFE
Частота : 48,0 КГц
Битовая глубина : 16 бит
Метод сжатия : С потерями
Размер потока : 297 Мбайт (9%)
Заголовок : I.Origins.2014.720p.WEB-DL.DD5.1.H264-RARBG
Язык : English
Default : Да
Forced : Нет
Текст #1
Идентификатор : 3
Формат : UTF-8
Идентификатор кодека : S_TEXT/UTF8
Идентификатор кодека/Информация : UTF-8 Plain Text
Язык : Russian
Default : Да
Forced : Нет
Текст #2
Идентификатор : 4
Формат : UTF-8
Идентификатор кодека : S_TEXT/UTF8
Идентификатор кодека/Информация : UTF-8 Plain Text
Язык : Ukrainian
Default : Нет
Forced : Нет
Текст #3
Идентификатор : 5
Формат : UTF-8
Идентификатор кодека : S_TEXT/UTF8
Идентификатор кодека/Информация : UTF-8 Plain Text
Язык : English
Default : Нет
Forced : Нет
Меню
00:00:00.000 : en:Chapter 01
00:02:40.000 : en:Chapter 02
00:05:32.000 : en:Chapter 03
00:07:23.000 : en:Chapter 04
00:12:34.000 : en:Chapter 05
00:13:51.000 : en:Chapter 06
00:16:42.000 : en:Chapter 07
00:18:59.000 : en:Chapter 08
00:21:31.000 : en:Chapter 09
00:25:35.000 : en:Chapter 10
00:29:36.000 : en:Chapter 11
00:32:49.000 : en:Chapter 12
00:36:23.000 : en:Chapter 13
00:42:27.000 : en:Chapter 14
00:46:35.000 : en:Chapter 15
00:50:48.000 : en:Chapter 16
00:54:13.000 : en:Chapter 17
00:58:22.000 : en:Chapter 18
01:02:22.000 : en:Chapter 19
01:05:21.000 : en:Chapter 20
01:07:45.000 : en:Chapter 21
01:12:48.000 : en:Chapter 22
01:16:27.000 : en:Chapter 23
01:18:35.000 : en:Chapter 24
01:21:14.000 : en:Chapter 25
01:23:55.000 : en:Chapter 26
01:26:01.000 : en:Chapter 27
01:27:47.000 : en:Chapter 28
01:32:39.000 : en:Chapter 29
01:37:33.000 : en:Chapter 30
01:38:57.000 : en:Chapter 31
01:42:17.000 : en:Chapter 32
Скриншот c названием фильма Скриншоты
Скачать

Скачать торрент!

Как скачивать? · Что такое торрент? · Рейтинг и ограничения

Сайт не распространяет и не хранит электронные версии произведений, а лишь предоставляет доступ к создаваемому пользователями каталогу ссылок на торрент-файлы, которые содержат только списки хеш-сумм

[Профиль] [ЛС]
Показать сообщения:    
Ответить на тему

Текущее время: Сегодня 20:09

Часовой пояс: GMT + 4



Вы не можете начинать темы
Вы не можете отвечать на сообщения
Вы не можете редактировать свои сообщения
Вы не можете удалять свои сообщения
Вы не можете голосовать в опросах
Вы не можете прикреплять файлы к сообщениям
Вы не можете скачивать файлы