Геракл / Hercules (Бретт Рэтнер / Brett Ratner) [2014, США, Фэнтези, Боевик, Приключения, BDRip] [Theatrical Cut / Театральная версия] Dub (Лицензия) + Original Eng

Ответить на тему
 
Автор Сообщение

user ®

Стаж: 7 лет 7 месяцев

Сообщений: 20008

Пост Пост: #1 от 05-Дек-2014 04:10

[Цитировать]

Геракл / Hercules / Theatrical Cut / Театральная версия«Множество врагов. Двенадцать подвигов. Один герой»- Страна: США Paramount Pictures, Metro-Goldwyn-Mayer
Жанр: Фэнтези, Боевик, Приключения
Год выпуска: 2014
Продолжительность: 01:38:05
Перевод: Профессиональный (дублированный) |Лицензия|
Cубтитры: Русские (форсированные-на надписи и пр. + полные)
Оригинальная аудиодорожка: английский-Режиссер: Бретт Рэтнер / Brett Ratner-В ролях: Дуэйн Джонсон (Hercules), Иэн МакШейн (Amphiaraus), Джон Хёрт (Lord Cotys), Руфус Сьюэлл (Autolycus), Аксель Хенни (Tydeus), Ингрид Больсё Бердаль (Atalanta), Рис Ричи (Iolaus), Джозеф Файнс (King Eurystheus), Тобиас Зантельман (Rhesus), Питер Муллан (Sitacles), Ребекка Фергюсон (Ergenia), Исаак Эндрюс (Arius), Джо Андерсон (Phineas), Стивен Пикок (Stephanos), Николас Мосс (Demetrius), Роберт Уайтлок (Nicolaus), Ирина Шейк (Megara), Кристофер Фэйрбэнк (Gryza).-Описание: Более тысячи лет назад измученная душа скиталась по Земле, полубог, получеловек - Геракл - могучий сын царя богов Зевса, совершив все 12 подвигов, потерял семью и теперь находит утешение только в кровавых битвах.За эти годы он собирает вокруг себя шестерых таких же потерянных воинов, единственным смыслом жизни для которых стали сражения и присутствие смертельной опасности. Эти мужчины и женщина никогда не задают вопрос, где, почему или с кем они идут сражаться; только, сколько им заплатят. Зная это, фракийский царь Котис нанимает этих воинов, чтобы они обучили его солдат и сделали из них самую сильную и великую армию всех времен.-| IMDB | КиноПоиск | Сэмпл |-Премьера (мир): 23 июля 2014, ...
Премьера (РФ): 24 июля 2014, «Централ Партнершип» 3D
Релиз на Blu-Ray: 1 декабря 2014, «Новый Диск», ...
Релиз на DVD: 1 декабря 2014, «Новый Диск», ...
Бюджет: $100 000 000.
Кассовые сборы: $243 388 614-Релиз группы: HQ-ViDEO
Автор рипа: Vaippp-Качество видео: BDRip (исходник: 1080p Blu-Ray AVC DTS-HD MA 7.1-PCH)
Формат видео: AVI
Видео: XviD, 720x304 (2.37:1), ~2276 kbps avg, 23,976 fps
Аудио 1: AC3 Dolby Digital, 48 KHz, ~448 kbps, 3/2 (L,C,R,l,r) + LFE ch /RUS/
Аудио 2: AC3 Dolby Digital, 48 KHz, ~448 kbps, 3/2 (L,C,R,l,r) + LFE ch /ENG/-

MediaInfo
General
Complete name : D:\FILMS\Gerakl.2014.Theatrical.Cut.DUAL.BDRip.XviD.AC3.-HQ-ViDEO\Gerakl.2014.Theatrical.Cut.DUAL.BDRip.XviD.AC3.-HQ-ViDEO.avi
Format : AVI
Format/Info : Audio Video Interleave
Format profile : OpenDML
File size : 2.19 GiB
Duration : 1h 38mn
Overall bit rate : 3 190 Kbps
Movie name : Hercules / Theatrical Cut (2014)
Director : Vaippp
Genre : Action/Adventure
Writing application : VirtualDubModRus 1.5.10.2 (build 2542/release)
Writing library : VirtualDubMod build 2542/release
Original source form/Name : Movie
Copyright : HQ-ViDEO
Comment : BDRip
Video
ID : 0
Format : MPEG-4 Visual
Format profile : Advanced Simple@L5
Format settings, BVOP : 1
Format settings, QPel : No
Format settings, GMC : No warppoints
Format settings, Matrix : Custom
Codec ID : XVID
Codec ID/Hint : XviD
Duration : 1h 38mn
Bit rate : 2 276 Kbps
Width : 720 pixels
Height : 304 pixels
Display aspect ratio : 2.35:1
Frame rate : 23.976 fps
Color space : YUV
Chroma subsampling : 4:2:0
Bit depth : 8 bits
Scan type : Progressive
Compression mode : Lossy
Bits/(Pixel*Frame) : 0.434
Stream size : 1.56 GiB (71%)
Writing library : XviD 73
Audio #1
ID : 1
Format : AC-3
Format/Info : Audio Coding 3
Mode extension : CM (complete main)
Format settings, Endianness : Big
Codec ID : 2000
Duration : 1h 38mn
Bit rate mode : Constant
Bit rate : 448 Kbps
Channel(s) : 6 channels
Channel positions : Front: L C R, Side: L R, LFE
Sampling rate : 48.0 KHz
Bit depth : 16 bits
Compression mode : Lossy
Stream size : 314 MiB (14%)
Alignment : Split accross interleaves
Interleave, duration : 42 ms (1.00 video frame)
Interleave, preload duration : 500 ms
Audio #2
ID : 2
Format : AC-3
Format/Info : Audio Coding 3
Mode extension : CM (complete main)
Format settings, Endianness : Big
Codec ID : 2000
Duration : 1h 38mn
Bit rate mode : Constant
Bit rate : 448 Kbps
Channel(s) : 6 channels
Channel positions : Front: L C R, Side: L R, LFE
Sampling rate : 48.0 KHz
Bit depth : 16 bits
Compression mode : Lossy
Stream size : 314 MiB (14%)
Alignment : Split accross interleaves
Interleave, duration : 42 ms (1.00 video frame)
Interleave, preload duration : 500 ms
Скриншот c названием фильма Скриншоты миниатюры Скриншоты
Скачать

Скачать торрент!

Как скачивать? · Что такое торрент? · Рейтинг и ограничения

Сайт не распространяет и не хранит электронные версии произведений, а лишь предоставляет доступ к создаваемому пользователями каталогу ссылок на торрент-файлы, которые содержат только списки хеш-сумм

[Профиль] [ЛС]
Показать сообщения:    
Ответить на тему

Текущее время: Сегодня 04:23

Часовой пояс: GMT + 4



Вы не можете начинать темы
Вы не можете отвечать на сообщения
Вы не можете редактировать свои сообщения
Вы не можете удалять свои сообщения
Вы не можете голосовать в опросах
Вы не можете прикреплять файлы к сообщениям
Вы не можете скачивать файлы