Дракула / Dracula Untold (Гари Шор / Gary Shore) [2014, США, Ужасы, Фэнтези, Боевик, Драма, WEB-DLRip-AVC] Dub

Ответить на тему
 
Автор Сообщение

user ®

Стаж: 7 лет 7 месяцев

Сообщений: 20008

Пост Пост: #1 от 04-Дек-2014 19:40

[Цитировать]

Дракула / Dracula Untold
Страна: США
Жанр: Ужасы, Фэнтези, Боевик, Драма
Год выпуска: 2014
Продолжительность: 01:32:09
Перевод: Дубляж (iTunes)
Cубтитры: нет
Режиссер: Гари Шор / Gary Shore
В ролях: Люк Эванс, Сара Гадон, Доминик Купер, Арт Паркинсон, Чарльз Дэнс, Дайармейд Мерта, Пол Кэй, Уильям Хьюстон, Ной Хантли, Ронан Вайберт
Описание: Влад Дракула был величайшим правителем, доблестным воином и страстным мужчиной. Но судьба свела его с врагом, коварство которого не знало границ. И тогда Дракула заключил сделку — нечеловеческая сила в обмен на самую малость — бессмертную душу…
Сэмпл: http://sendfile.su/1056610
Качество видео: WEB-DLRip-AVC
Формат видео: MKV
Видео: MPEG-AVC, 1024x424 (2.40:1), 23.976 fps, ~1881 kbps
Аудио: AC-3, 384 kbps, 6 Ch., 48.0 KHz
MediaInfo
Общее
Уникальный идентификатор : 248276981864559899050166724713642993417 (0xBAC8684A8C2799B4937F7992B0602709)
Полное имя : D:\Дракула WEB-DLRip-AVC.mkv
Формат : Matroska
Версия формата : Version 4 / Version 2
Размер файла : 1,46 Гбайт
Продолжительность : 1 ч. 32 м.
Общий поток : 2267 Кбит/сек
Название фильма : Dracula.Untold.2014.x264.D.WEB-DLRip.(AVC).NovaLan
Дата кодирования : UTC 2014-12-04 06:30:52
Программа кодирования : mkvmerge v7.3.0 ('Nouages') 64bit built on Oct 22 2014 18:53:34
Библиотека кодирования : libebml v1.3.0 + libmatroska v1.4.1
DURATION : 01:32:09.632000000
NUMBER_OF_FRAMES : 172801
NUMBER_OF_BYTES : 265422336
_STATISTICS_WRITING_APP : mkvmerge v7.3.0 ('Nouages') 64bit built on Oct 22 2014 18:53:34
_STATISTICS_WRITING_DATE_UTC : 2014-12-04 06:30:52
_STATISTICS_TAGS : BPS DURATION NUMBER_OF_FRAMES NUMBER_OF_BYTES
Видео
Идентификатор : 1
Формат : AVC
Формат/Информация : Advanced Video Codec
Профиль формата : High@L4.1
Параметр CABAC формата : Да
Параметр ReFrames формата : 9 кадров
Идентификатор кодека : V_MPEG4/ISO/AVC
Продолжительность : 1 ч. 32 м.
Битрейт : 1881 Кбит/сек
Ширина : 1024 пикселя
Высота : 424 пикселя
Соотношение сторон : 2,40:1
Режим частоты кадров : Постоянный
Частота кадров : 23,976 кадра/сек
Цветовое пространство : YUV
Субдискретизация насыщенности : 4:2:0
Битовая глубина : 8 бит
Тип развёртки : Прогрессивная
Бит/(Пиксели*Кадры) : 0.181
Размер потока : 1,18 Гбайт (81%)
Заголовок : Dracula.Untold.2014.x264.D.WEB-DLRip.(AVC).by.StarbirS
Библиотека кодирования : x264 core 142 r2431 ac76440
Настройки программы : cabac=1 / ref=9 / deblock=1:-2:-2 / analyse=0x3:0x113 / me=umh / subme=11 / psy=1 / psy_rd=1.00:0.15 / mixed_ref=1 / me_range=48 / chroma_me=1 / trellis=2 / 8x8dct=1 / cqm=0 / deadzone=21,11 / fast_pskip=0 / chroma_qp_offset=-3 / threads=12 / lookahead_threads=4 / sliced_threads=0 / nr=0 / decimate=0 / interlaced=0 / bluray_compat=0 / constrained_intra=0 / bframes=8 / b_pyramid=2 / b_adapt=2 / b_bias=0 / direct=3 / weightb=1 / open_gop=0 / weightp=2 / keyint=240 / keyint_min=23 / scenecut=40 / intra_refresh=0 / rc=2pass / mbtree=0 / bitrate=1881 / ratetol=1.0 / qcomp=0.65 / qpmin=0 / qpmax=69 / qpstep=4 / cplxblur=20.0 / qblur=0.5 / ip_ratio=1.40 / pb_ratio=1.30 / aq=2:0.90
Язык : English
Default : Да
Forced : Нет
DURATION : 01:32:09.575000000
NUMBER_OF_FRAMES : 132577
NUMBER_OF_BYTES : 1300265554
_STATISTICS_WRITING_APP : mkvmerge v7.3.0 ('Nouages') 64bit built on Oct 22 2014 18:53:34
_STATISTICS_WRITING_DATE_UTC : 2014-12-04 06:30:52
_STATISTICS_TAGS : BPS DURATION NUMBER_OF_FRAMES NUMBER_OF_BYTES
Аудио
Идентификатор : 2
Формат : AC-3
Формат/Информация : Audio Coding 3
Расширение режима : CM (complete main)
Параметр Endianness формата : Big
Идентификатор кодека : A_AC3
Продолжительность : 1 ч. 32 м.
Вид битрейта : Постоянный
Битрейт : 384 Кбит/сек
Каналы : 6 каналов
Расположение каналов : Front: L C R, Side: L R, LFE
Частота : 48,0 КГц
Битовая глубина : 16 бит
Метод сжатия : С потерями
Размер потока : 253 Мбайт (17%)
Заголовок : Дублированный (iTunes)
Язык : Russian
Default : Да
Forced : Нет
Меню
00:00:00.000 : en:Chapter 01
00:04:09.000 : en:Chapter 02
00:07:22.000 : en:Chapter 03
00:11:34.000 : en:Chapter 04
00:16:32.000 : en:Chapter 05
00:22:55.000 : en:Chapter 06
00:30:22.000 : en:Chapter 07
00:34:16.000 : en:Chapter 08
00:38:58.000 : en:Chapter 09
00:43:02.000 : en:Chapter 10
00:47:05.000 : en:Chapter 11
00:53:18.000 : en:Chapter 12
00:57:41.000 : en:Chapter 13
01:00:49.000 : en:Chapter 14
01:04:31.000 : en:Chapter 15
01:09:14.000 : en:Chapter 16
01:12:49.000 : en:Chapter 17
01:17:13.000 : en:Chapter 18
01:21:54.000 : en:Chapter 19
01:25:01.000 : en:Chapter 20
Скриншоты
Скачать

Скачать торрент!

Как скачивать? · Что такое торрент? · Рейтинг и ограничения

Сайт не распространяет и не хранит электронные версии произведений, а лишь предоставляет доступ к создаваемому пользователями каталогу ссылок на торрент-файлы, которые содержат только списки хеш-сумм

[Профиль] [ЛС]
Показать сообщения:    
Ответить на тему

Текущее время: Сегодня 20:16

Часовой пояс: GMT + 4



Вы не можете начинать темы
Вы не можете отвечать на сообщения
Вы не можете редактировать свои сообщения
Вы не можете удалять свои сообщения
Вы не можете голосовать в опросах
Вы не можете прикреплять файлы к сообщениям
Вы не можете скачивать файлы