Тинтин и озеро акул / Tintin et le Lac aux Requins / Tintin and the Lake of Sharks (Рэймонд ЛеБланк / Raymond Leblanc) [1972, Мультфильм, детектив, приключения, семейный, DVB] Dub

Ответить на тему
 
Автор Сообщение

user ®

Стаж: 13 лет

Сообщений: 15041

Пост Пост: #1 от 04-Дек-2014 16:30

[Цитировать]

Тинтин и озеро акул / Tintin et le Lac aux Requins / Tintin and the Lake of Sharks
Страна: Бельгия, Франция, Belvision, Dargaud Films, Raymond Leblanc
Жанр: Мультфильм, детектив, приключения, семейный
Продолжительность: 01:13:00
Год выпуска: 1972
Перевод: Профессиональный (дублированный)
Русские субтитры: нет
Режиссёр: Рэймонд ЛеБланк / Raymond Leblanc
Описание: Тинтин, Милу и капитан Хэддок отправляются отдохнуть на виллу к профессору Турнесолю на озеро Флешизаф. Но стоит им прибыть в Сильдавию, как об отдыхе нельзя и подумать. Встреча с Дюпонами, крушение самолета, таинственные гости в доме, пропажа бумаг профессора, — череда приключений не дает ни минуты покоя. А когда неизвестные похищают новых друзей Тинтина, брата и сестру из соседней деревни, ему ничего не остается, как отправится в логово врага — в тайное прибежище бандитов, спрятанное на дне озера.
Сэмпл: http://sendfile.su/1056576
Качество: DVB
Формат: MPG
Видео: MPG2, 720x576 (4:3), 25fps, 2 516 Kbps, , 0.243 bits/pixel
Аудио: MPEG Audio 48000Hz, stereo, 192 Kbps
Субтитры: отсутствуют
Подробные технические данные
C:\Temp\Приключения Тинтина. Тинтин и озеро акул.1972.DVB.Thunder.mpg General #0 ID : 0 Complete name : C:\Temp\Приключения Тинтина. Тинтин и озеро акул.1972.DVB.Thunder.mpg Format : MPEG-TS File size : 1.45 GiB Duration : 1h 13mn Overall bit rate : 2 851 Kbps Video #301 ID : 301 (0x12D) Menu ID : 1 (0x1) Format : MPEG Video Format version : Version 2 Format profile : Main@Main Format settings, BVOP : Yes Format settings, Matrix : Default Codec ID : 2 Duration : 1h 12mn Bit rate mode : Variable Bit rate : 2 516 Kbps Nominal bit rate : 15.0 Mbps Width : 720 pixels Height : 576 pixels Display aspect ratio : 4:3 Frame rate : 25.000 fps Standard : PAL Color space : YUV Chroma subsampling : 4:2:0 Bit depth : 8 bits Scan type : Interlaced Scan order : Top Field First Bits/(Pixel*Frame) : 0.243 Stream size : 1.28 GiB (88%) Audio #302 ID : 302 (0x12E) Menu ID : 1 (0x1) Format : MPEG Audio Format version : Version 1 Format profile : Layer 2 Codec ID : 3 Duration : 1h 13mn Bit rate mode : Constant Bit rate : 192 Kbps Channel(s) : 2 channels Sampling rate : 48.0 KHz Stream size : 100 MiB (7%)
Скриншоты
Скачать

Скачать торрент! Тинтин и озеро акул / Tintin et le Lac aux Requins / Tintin and the Lake of Sharks (Рэймонд ЛеБланк / Raymond Leblanc) [1972, Мультфильм, детектив, приключения, семейный, DVB] Dub

Как скачивать? · Что такое торрент? · Рейтинг и ограничения

Сайт не распространяет и не хранит электронные версии произведений, а лишь предоставляет доступ к создаваемому пользователями каталогу ссылок на торрент-файлы, которые содержат только списки хеш-сумм

[Профиль] [ЛС]
Показать сообщения:    
Ответить на тему

Текущее время: Сегодня 18:40

Часовой пояс: GMT + 4



Вы не можете начинать темы
Вы не можете отвечать на сообщения
Вы не можете редактировать свои сообщения
Вы не можете удалять свои сообщения
Вы не можете голосовать в опросах
Вы не можете прикреплять файлы к сообщениям
Вы не можете скачивать файлы