Возвращение на базу / Взвейся в небо / R2B: Return 2 Base / Soar into the sun / Al-too-bi: Riteon Too Beiseu (Донг-вон Ким / Dong-Won Kim) [2012, Южная Корея, Боевик, драма, HDRip] Dub (НТВ+) + Original Kor

Ответить на тему
 
Автор Сообщение

user ®

Стаж: 13 лет

Сообщений: 15071

Пост Пост: #1 от 04-Дек-2014 13:20

[Цитировать]

Возвращение на базу / Взвейся в небо
R2B: Return 2 Base / Soar into the sun / Al-too-bi: Riteon Too Beiseu
- Год выпуска: 2012
Страна: Южная Корея
Жанр: Боевик, драма
Продолжительность: 01:55:33-Перевод: Профессиональный (дублированный) (НТВ+)
Cубтитры: Нет
Оригинальная аудиодорожка: Корейский-Режиссер: Донг-вон Ким / Dong-Won Kim
В ролях: Рэйн, Ю Чжун Сан, Ким Сон Су, Ли Ха На, Ли Чжон Сок, Чон Сок Вон, Пэк Пон Ги, Ха Су Хо, Кён-хун Чжон, Син Се Гён-Описание: В элитную группу корейских ВВС "Чёрные орлы" переводится новичок Тэ Хун. И угораздило же его в первый день на новом месте поцапаться с излишне щепетильным напарником! Но нет худа без добра - в процессе мужских разборок Тэ Хун и с командой подружился, и даму сердца себе из бригады техобслуживания присмотрел. Подумаешь, влетело всем за его выходку! И не единожды, между прочим, влетело... В последний раз так вообще всех временно отстранили. Впрочем, ненадолго - стоило на границе нарисоваться северокорейскому МиГу, как группу бегом снарядили на рейд. Результаты рейда, мягко скажем, не вдохновляют - один убит, другой пропал без вести, командный дух вообще ниже шасси... Тут уже не до выяснения отношений - надо срочно мириться и айда товарища из плена выручать! "Чёрные орлы" расправляют крылья...
Ремейк фильма 1964-го года. При участии голливудской команды по спецэффектам, подарившей миру "Тёмного рыцаря" и "Начало". С благословения ВВС Республики Корея (с) Takagi-Сэмпл: http://sendfile.su/1056407-Качество видео: HDRip
Формат видео: AVI
Видео: XviD, 720x304 (2.35:1), 23.976 fps, 1 950 Kbps (0.371 bit/pixel)
Аудио 1: AC-3, 48.0 KHz, 2 ch, 192 Kbps, CBR [Русский]
Аудио 2: AC-3, 48.0 KHz, 6 ch, 384 Kbps, CBR [Корейский]

MediaInfo
Complete name : D:\3.Торренты\Vosparit.nad.solncem.2012.P.HDRip.2100MB.avi
Format : AVI
Format/Info : Audio Video Interleave
Format profile : OpenDML
File size : 2.05 GiB
Duration : 1h 55mn
Overall bit rate : 2 543 Kbps
Writing application : VirtualDubMod 1.5.10.2 (build 2540/release)
Writing library : VirtualDubMod build 2540/release
Video
ID : 0
Format : MPEG-4 Visual
Format profile : Advanced Simple@L5
Format settings, BVOP : 2
Format settings, QPel : No
Format settings, GMC : No warppoints
Format settings, Matrix : Default (MPEG)
Codec ID : XVID
Codec ID/Hint : XviD
Duration : 1h 55mn
Bit rate : 1 950 Kbps
Width : 720 pixels
Height : 304 pixels
Display aspect ratio : 2.35:1
Frame rate : 23.976 fps
Color space : YUV
Chroma subsampling : 4:2:0
Bit depth : 8 bits
Scan type : Progressive
Compression mode : Lossy
Bits/(Pixel*Frame) : 0.371
Stream size : 1.57 GiB (77%)
Writing library : XviD 1.2.1 (UTC 2008-12-04)
Audio #1
ID : 1
Format : AC-3
Format/Info : Audio Coding 3
Mode extension : CM (complete main)
Format settings, Endianness : Big
Codec ID : 2000
Duration : 1h 55mn
Bit rate mode : Constant
Bit rate : 192 Kbps
Channel(s) : 2 channels
Channel positions : Front: L R
Sampling rate : 48.0 KHz
Bit depth : 16 bits
Compression mode : Lossy
Stream size : 158 MiB (8%)
Alignment : Split accross interleaves
Interleave, duration : 42 ms (1.00 video frame)
Interleave, preload duration : 500 ms
Audio #2
ID : 2
Format : AC-3
Format/Info : Audio Coding 3
Mode extension : CM (complete main)
Format settings, Endianness : Big
Codec ID : 2000
Duration : 1h 55mn
Bit rate mode : Constant
Bit rate : 384 Kbps
Channel(s) : 6 channels
Channel positions : Front: L C R, Side: L R, LFE
Sampling rate : 48.0 KHz
Bit depth : 16 bits
Compression mode : Lossy
Stream size : 317 MiB (15%)
Alignment : Split accross interleaves
Interleave, duration : 42 ms (1.00 video frame)
Interleave, preload duration : 500 ms
Скриншот c названием фильма Скриншоты
Скачать

Скачать торрент! Возвращение на базу / Взвейся в небо / R2B: Return 2 Base / Soar into the sun / Al-too-bi: Riteon Too Beiseu (Донг-вон Ким / Dong-Won Kim) [2012, Южная Корея, Боевик, драма, HDRip] Dub (НТВ+) + Original Kor

Как скачивать? · Что такое торрент? · Рейтинг и ограничения

Сайт не распространяет и не хранит электронные версии произведений, а лишь предоставляет доступ к создаваемому пользователями каталогу ссылок на торрент-файлы, которые содержат только списки хеш-сумм

[Профиль] [ЛС]
Показать сообщения:    
Ответить на тему

Текущее время: Сегодня 21:47

Часовой пояс: GMT + 4



Вы не можете начинать темы
Вы не можете отвечать на сообщения
Вы не можете редактировать свои сообщения
Вы не можете удалять свои сообщения
Вы не можете голосовать в опросах
Вы не можете прикреплять файлы к сообщениям
Вы не можете скачивать файлы