Счастливчик / Lucky (Джил Кэйтс мл. / Gil Cates Jr.) [2011, США, комедия, BDRemux 1080p] DVO (Jaskier) + Original (Eng) + Sub (Eng)

Ответить на тему
 
Автор Сообщение

user ®

Стаж: 7 лет 7 месяцев

Сообщений: 20008

Пост Пост: #1 от 04-Дек-2014 02:00

[Цитировать]

Счастливчик / Lucky Страна: США
Жанр: комедия
Год выпуска: 2011
Продолжительность: 01:43:56
Перевод: Любительский (двухголосый закадровый) Jaskier
Cубтитры: английские
Оригинальная аудиодорожка: английский
Режиссер: Джил Кэйтс мл. / Gil Cates Jr.
В ролях: Колин Хэнкс, Энн-Маргрет, Джеффри Тэмбор, Адам Хэррингтон, Мими Роджерс, Эллисон Маки, Том Амандес, Мишель Дэвидсон, Оливия Сэтер, Эрик Кирхбергер, Эри Грейнор
Описание:
Милый и застенчивый парень по имени Бен уже давно и безнадежно влюблен в блондинку Люси. Они знакомы с самого детства и работают вместе, но, увы, девушка не отвечает взаимностью, предпочитая мужчин другого сорта: она без ума от собственного босса и крутит с ним роман. В один прекрасный день начальник сообщает своей секретарше, что между ними все кончено. Люси в отчаянии. Но, как известно, если в одном месте что-то убывает, то в другом прибывает. Так и есть: придя домой, Бен узнает, что стал победителем лотереи. Правда, счастливый билет достался ему весьма оригинальным способом…
- || -Тип релиза: BDRemux 1080p (Lucky.2011.1080p.NOR.Blu-ray.AVC.DD.2.0-NoSence)

Контейнер: MKV
Видео: AVC (x264), 1920x1080 (16:9) at 24,000 fps, ~22997 Кbps
Аудио 1: AC3; 192 Kbps; CBR; 2 ch; 48 khz | DVO - Jaskier |
Аудио 2: AC3; 448 Kbps; CBR; 6 ch; 48 khz | Английский |
Формат субтитров: softsub (SRT)
Скриншоты || x264 Info || MediaInfo || Notes
MediaInfo
General
Unique ID                                : 170942533743650398536525423816661286019 (0x809A559E8E7F56F9BFB5DC3764C03C83)
Complete name                            : Счастливчик.2011.P.1080p.BluRay.Remux.x264.mkv
Format                                   : Matroska
Format version                           : Version 4 / Version 2
File size                                : 17.1 GiB
Duration                                 : 1h 43mn
Overall bit rate mode                    : Variable
Overall bit rate                         : 23.6 Mbps
Movie name                               : Lucky [2011] [remux] DVO
Encoded date                             : UTC 2014-12-02 07:11:13
Writing application                      : mkvmerge v7.3.0 ('Nouages') 32bit built on Oct 22 2014 18:44:01
Writing library                          : libebml v1.3.0 + libmatroska v1.4.1
Video
ID                                       : 1
Format                                   : AVC
Format/Info                              : Advanced Video Codec
Format profile                           : High@L4.1
Format settings, CABAC                   : Yes
Format settings, ReFrames                : 4 frames
Codec ID                                 : V_MPEG4/ISO/AVC
Duration                                 : 1h 43mn
Bit rate mode                            : Variable
Bit rate                                 : 22.5 Mbps
Maximum bit rate                         : 37.0 Mbps
Width                                    : 1 920 pixels
Height                                   : 1 080 pixels
Display aspect ratio                     : 16:9
Frame rate mode                          : Constant
Frame rate                               : 24.000 fps
Standard                                 : PAL
Color space                              : YUV
Chroma subsampling                       : 4:2:0
Bit depth                                : 8 bits
Scan type                                : Progressive
Bits/(Pixel*Frame)                       : 0.452
Stream size                              : 16.3 GiB (95%)
Title                                    : MPEG-4 AVC Video / 22997 kbps / 1080p / 24 fps / 16:9 / High Profile 4.1 // profile.php?mode=viewprofile&u=22488948
Language                                 : English
Default                                  : Yes
Forced                                   : No
Color primaries                          : BT.709
Transfer characteristics                 : BT.709
Matrix coefficients                      : BT.709
Audio #1
ID                                       : 2
Format                                   : AC-3
Format/Info                              : Audio Coding 3
Mode extension                           : CM (complete main)
Format settings, Endianness              : Big
Codec ID                                 : A_AC3
Duration                                 : 1h 43mn
Bit rate mode                            : Constant
Bit rate                                 : 192 Kbps
Channel(s)                               : 2 channels
Channel positions                        : Front: L R
Sampling rate                            : 48.0 KHz
Bit depth                                : 16 bits
Compression mode                         : Lossy
Stream size                              : 143 MiB (1%)
Title                                    : DVO [Jaskier]
Language                                 : Russian
Default                                  : Yes
Forced                                   : No
Audio #2
ID                                       : 3
Format                                   : AC-3
Format/Info                              : Audio Coding 3
Mode extension                           : CM (complete main)
Format settings, Endianness              : Big
Codec ID                                 : A_AC3
Duration                                 : 1h 43mn
Bit rate mode                            : Constant
Bit rate                                 : 448 Kbps
Channel(s)                               : 6 channels
Channel positions                        : Front: L C R, Side: L R, LFE
Sampling rate                            : 48.0 KHz
Bit depth                                : 16 bits
Compression mode                         : Lossy
Stream size                              : 333 MiB (2%)
Language                                 : English
Default                                  : No
Forced                                   : No
Text
ID                                       : 4
Format                                   : UTF-8
Codec ID                                 : S_TEXT/UTF8
Codec ID/Info                            : UTF-8 Plain Text
Language                                 : English
Default                                  : No
Forced                                   : No
Menu
00:00:00.000                             : en:
00:08:07.458                             : en:
00:16:57.000                             : en:
00:26:58.333                             : en:
00:38:30.625                             : en:
00:47:32.083                             : en:
00:56:31.541                             : en:
01:03:06.166                             : en:
01:10:27.750                             : en:
01:20:56.083                             : en:
01:29:22.541                             : en:
01:33:40.333                             : en:
01:39:26.916                             : en:
01:43:39.708                             : en:
Цитата: Аудио дорожка 1 записана мной с онлайн-кинотеатра
Оригинальная аудио дорожка DD 448@2.0 заменена на DD 448@5.1 (взята со сценрипа)
Английские субтитры найдены в интернете
За поиск исходника, огромная благодарность [url=http://***/forum/profile.php?mode=viewprofile&u=10273283]Slipknot_cooler[/url]
Скачать

Скачать торрент!

Как скачивать? · Что такое торрент? · Рейтинг и ограничения

Сайт не распространяет и не хранит электронные версии произведений, а лишь предоставляет доступ к создаваемому пользователями каталогу ссылок на торрент-файлы, которые содержат только списки хеш-сумм

[Профиль] [ЛС]
Показать сообщения:    
Ответить на тему

Текущее время: Сегодня 17:45

Часовой пояс: GMT + 4



Вы не можете начинать темы
Вы не можете отвечать на сообщения
Вы не можете редактировать свои сообщения
Вы не можете удалять свои сообщения
Вы не можете голосовать в опросах
Вы не можете прикреплять файлы к сообщениям
Вы не можете скачивать файлы