Игра Эндера / Ender\'s Game (Гэвин Худ / Gavin Hood) [2013, США, фантастика, боевик, приключения, BDRip 1080p] Dub + 2х AVO (Горчаков, Гаврилов) + Sub Rus, Eng + Original Eng

Ответить на тему
 
Автор Сообщение

user ®

Стаж: 7 лет 7 месяцев

Сообщений: 20008

Пост Пост: #1 от 04-Дек-2014 02:00

[Цитировать]

Игра Эндера / Ender's Game Страна: США
Студия: Chartoff Productions, Kurtzman Orci Paper Products, Digital Domain Media Group
Жанр: фантастика, боевик, приключения
Год выпуска: 2013
Продолжительность: 01:53:48
Перевод 1: Профессиональный (дублированный) TV 1000 Action
Перевод 2: Авторский (одноголосый закадровый) Горчаков
Перевод 3: Авторский (одноголосый закадровый) Гаврилов
Cубтитры: русские (voronine), английские (full, SDH)
Оригинальная аудиодорожка: английский
Режиссер: Гэвин Худ / Gavin Hood
В ролях: Эйса Баттерфилд, Харрисон Форд, Бен Кингсли, Виола Дэвис, Хейли Стайнфелд, Эбигейл Бреслин, Арамис Найт, Сурадж Партха, Мойзес Ариас, Кайлин Рамбо
Описание: Действие ленты происходит в 2136 году. Будущее Земли не так радужно, как представлялось оно людям. Инопланетные расы начали постоянно вторгаться на людскую, стараясь уничтожить всё человечество. Элитная школа подготавливает самых крепких ребят для борьбы с инопланетянами. Главный герой ленты один из учеников подросток Эндрю Виггин, которого будет готовить полковник Хайрам Графф и полководец Мэзер Ракхейм изменит судьбу всего человечества. И мир ждет с нетерпением выхода этой кинокартины, ведь в своей основе она содержит одноименный рассказ от Орсона Скотта Карда, у которого уже есть многомиллионная аудитория почитателей. Станет ли кинокартина такая же уникальная и непревзойденная как книга, судить лишь зрителю…

Тип релиза: BDRip 1080p [DON]
Контейнер: MKV
Видео: AVC, 1920x800, 19500 kbps, 23.976 fps
Аудио 1: Russian: 48 kHz, AC3, 3/2 (L,C,R,l,r) + LFE ch, 384.00 kbps |TV 1000 Action|
Аудио 2: Russian: 48 kHz, DTS, 3/2 (L,C,R,l,r) + LFE ch, ~1536.00 kbps avg |Горчаков|
Аудио 3: Russian: 48 kHz, DTS, 3/2 (L,C,R,l,r) + LFE ch, ~1536.00 kbps avg |Гаврилов|
Аудио 4: English: 48 kHz, DTS, 3/2 (L,C,R,l,r) + LFE ch, ~1536.00 kbps avg |Original|
Чаптеры:есть

Доп.информация
За перевод Василия Горчакова спасибо пользователям форума e180: foxlight, ultrajeka, SavineX78, zeleniy, masta, Nadoelo, kinobbk, MyxAmoP, Skoped, uchitel538, luka69, furria62, xerman13, dark1982, Loki1982, vit, SJC, anvic, Hattori Hanzo, dir, kondratzx, Диммон, bla_, blackmore, I_Am_Hell, Werewolf77, idalgo, pestel, Wolf_Larsen.
За перевод Андрея Гаврилова спасибо пользователям: _MyxAmoP_, ultrajeka, rydanes, Pain_70, kinobbk, karantin66, Schmulke, nimph, v111o, dunhill200, Chistobaev, lexal, Xerman13, Brown15, chef&chef , Denis2251, foxlight, Luka69, Skoped, Диммон, Role, kondratzx, Loki, hulahup, Letyoha3.
За русские субтитры по дубляжу большое спасибо voronine.
x264 log
x264 [info]: frame I:1593 Avg QP:10.27 size:280026
x264 [info]: frame P:34919 Avg QP:12.94 size:147898
x264 [info]: frame B:127217 Avg QP:13.63 size: 93024
x264 [info]: consecutive B-frames: 2.9% 2.6% 7.9% 14.2% 14.5% 44.3% 5.7% 1.0% 2.1% 2.1% 2.9%
x264 [info]: encoded 163729 frames, 1.88 fps, 20436.55 kb/s, duration 24:14:34.14
MediaInfo
General
Unique ID : 228867655105396149324055686979474578115 (0xAC2E4E9950E8A8909B568695A7E25AC3)
Complete name : D:\рипы\Enders.Game.2013.1080p.BluRay.DTS.x264-Talian-.mkv
Format : Matroska
Format version : Version 2
File size : 20.2 GiB
Duration : 1h 53mn
Overall bit rate : 25.5 Mbps
Movie name : Ender's Game -Talian-
Encoded date : UTC 2014-12-02 09:37:49
Writing application : mkvmerge v5.7.0 ('The Whirlwind') built on Jul 8 2012 20:08:51
Writing library : libebml v1.2.3 + libmatroska v1.3.0
Video
ID : 1
Format : AVC
Format/Info : Advanced Video Codec
Format profile : High@L4.1
Format settings, CABAC : Yes
Format settings, ReFrames : 5 frames
Codec ID : V_MPEG4/ISO/AVC
Duration : 1h 53mn
Bit rate : 20.0 Mbps
Width : 1 920 pixels
Height : 800 pixels
Display aspect ratio : 2.40:1
Frame rate : 23.976 fps
Color space : YUV
Chroma subsampling : 4:2:0
Bit depth : 8 bits
Scan type : Progressive
Bits/(Pixel*Frame) : 0.544
Stream size : 15.9 GiB (79%)
Title : DON
Writing library : x264 core 142 r2389kMod 956c8d8
Encoding settings : cabac=1 / ref=5 / deblock=1:-3:-3 / analyse=0x3:0x133 / me=tesa / subme=10 / psy=1 / fade_compensate=0.00 / psy_rd=0.80:0.00 / mixed_ref=1 / me_range=24 / chroma_me=1 / trellis=2 / 8x8dct=1 / cqm=0 / deadzone=21,11 / fast_pskip=0 / chroma_qp_offset=-2 / threads=6 / lookahead_threads=1 / sliced_threads=0 / nr=0 / decimate=0 / interlaced=0 / bluray_compat=0 / constrained_intra=0 / fgo=0 / bframes=10 / b_pyramid=2 / b_adapt=2 / b_bias=0 / direct=3 / weightb=1 / open_gop=0 / weightp=2 / keyint=250 / keyint_min=23 / scenecut=40 / intra_refresh=0 / rc=crf / mbtree=0 / crf=15.0000 / qcomp=0.60 / qpmin=0 / qpmax=69 / qpstep=4 / ip_ratio=1.40 / pb_ratio=1.20 / aq=3:0.90 / zones=2258,2467,crf=12,chroma-qp-offset=-4/9089,9130,crf=12,chroma-qp-offset=-4/9221,9276,crf=12,chroma-qp-offset=-4/9326,9394,crf=12,chroma-qp-offset=-4/9465,9493,crf=12,chroma-qp-offset=-4/9856,9884,crf=12,chroma-qp-offset=-4/9926,9987,crf=12,chroma-qp-offset=-4/10066,10114,crf=12,chroma-qp-offset=-4/10476,10811,crf=12,chroma-qp-offset=-4/10920,10952,crf=12,chroma-qp-offset=-4/14879,16024,crf=13.5,chroma-qp-offset=-4/16602,17749,crf=13.5/25400,25463,crf=12,chroma-qp-offset=-4/26328,26359,crf=12,chroma-qp-offset=-4/26638,26674,crf=12,chroma-qp-offset=-4/33385,33432,crf=13,chroma-qp-offset=-4/34952,35007,chroma-qp-offset=-4/44022,44070,crf=13.5,chroma-qp-offset=-4/44549,44576,crf=13.5,chroma-qp-offset=-4/44905,44951,crf=13.5,chroma-qp-offset=-4/45195,45223,crf=13.5,chroma-qp-offset=-4/45291,45314,crf=13.5,chroma-qp-offset=-4/45904,45943,crf=13.5,chroma-qp-offset=-4/46756,46795,crf=13.5,chroma-qp-offset=-4/64321,64350,crf=13.5,chroma-qp-offset=-4/67304,67342,crf=13.5,chroma-qp-offset=-4/67400,67435,chroma-qp-offset=-4/67470,67518,chroma-qp-offset=-4/67611,67655,crf=12,chroma-qp-offset=-4/68490,68863,crf=12,chroma-qp-offset=-4/68919,69062,crf=12,chroma-qp-offset=-4/69121,69281,crf=11,chroma-qp-offset=-4/69380,69409,crf=11,chroma-qp-offset=-4/75824,75931,crf=10/76165,76222,crf=10/76223,76292,crf=13/76365,76475,crf=13,chroma-qp-offset=-4/76476,76523,crf=13/76524,76572,crf=13,chroma-qp-offset=-4/90668,90741,crf=12,chroma-qp-offset=-4/94276,94354,crf=13,chroma-qp-offset=-4/95735,95887,crf=13,chroma-qp-offset=-4/96345,96527,crf=12.5/98234,98266,crf=13.5,chroma-qp-offset=-4/98978,99110,crf=13.5,chroma-qp-offset=-4/99208,99430,crf=13.5,chroma-qp-offset=-4/100456,100599,crf=13,chroma-qp-offset=-4/102731,102818,crf=13.5,chroma-qp-offset=-4/123248,123269,crf=13,chroma-qp-offset=-4/123296,123328,crf=13,chroma-qp-offset=-4/123494,123546,crf=13,chroma-qp-offset=-4/123637,123705,crf=13,chroma-qp-offset=-4/123822,123859,crf=13,chroma-qp-offset=-4/133261,133301,crf=10,chroma-qp-offset=-4/133770,133823,crf=10,chroma-qp-offset=-4/133998,134058,crf=10,chroma-qp-offset=-4/134646,134936,crf=13,chroma-qp-offset=-4/137209,137370,crf=13,chroma-qp-offset=-4/141774,141847,crf=12,chroma-qp-offset=-4/142424,142541,crf=11,chroma-qp-offset=-4/145283,145431,crf=13,chroma-qp-offset=-4/145970,146204,crf=13,chroma-qp-offset=-4/147007,147074,crf=13,chroma-qp-offset=-4/147147,147175,crf=13,chroma-qp-offset=-4/147445,147504,crf=13,chroma-qp-offset=-4/147913,148889,crf=13,chroma-qp-offset=-4/149155,149384,crf=13,chroma-qp-offset=-4/149672,149970,crf=13,chroma-qp-offset=-4/150055,150548,crf=13,chroma-qp-offset=-4/151860,163729,crf=20
Language : English
Default : Yes
Forced : No
Audio #1
ID : 2
Format : AC-3
Format/Info : Audio Coding 3
Mode extension : CM (complete main)
Format settings, Endianness : Big
Codec ID : A_AC3
Duration : 1h 53mn
Bit rate mode : Constant
Bit rate : 384 Kbps
Channel(s) : 6 channels
Channel positions : Front: L C R, Side: L R, LFE
Sampling rate : 48.0 KHz
Bit depth : 16 bits
Compression mode : Lossy
Stream size : 313 MiB (2%)
Title : DUB- R5 / TV 1000 Action
Language : Russian
Default : Yes
Forced : No
Audio #2
ID : 3
Format : DTS
Format/Info : Digital Theater Systems
Codec ID : A_DTS
Duration : 1h 53mn
Bit rate mode : Constant
Bit rate : 1 510 Kbps
Channel(s) : 6 channels
Channel positions : Front: L C R, Side: L R, LFE
Sampling rate : 48.0 KHz
Bit depth : 24 bits
Compression mode : Lossy
Stream size : 1.20 GiB (6%)
Title : AVO-Горчаков
Language : Russian
Default : No
Forced : No
Audio #3
ID : 4
Format : DTS
Format/Info : Digital Theater Systems
Codec ID : A_DTS
Duration : 1h 53mn
Bit rate mode : Constant
Bit rate : 1 510 Kbps
Channel(s) : 6 channels
Channel positions : Front: L C R, Side: L R, LFE
Sampling rate : 48.0 KHz
Bit depth : 24 bits
Compression mode : Lossy
Stream size : 1.20 GiB (6%)
Title : AVO-Гаврилов
Language : Russian
Default : No
Forced : No
Audio #4
ID : 5
Format : DTS
Format/Info : Digital Theater Systems
Codec ID : A_DTS
Duration : 1h 53mn
Bit rate mode : Constant
Bit rate : 1 510 Kbps
Channel(s) : 6 channels
Channel positions : Front: L C R, Side: L R, LFE
Sampling rate : 48.0 KHz
Bit depth : 24 bits
Compression mode : Lossy
Stream size : 1.20 GiB (6%)
Title : Original
Language : English
Default : No
Forced : No
Text #1
ID : 6
Format : UTF-8
Codec ID : S_TEXT/UTF8
Codec ID/Info : UTF-8 Plain Text
Title : Sub-voronine
Language : Russian
Default : No
Forced : No
Text #2
ID : 7
Format : UTF-8
Codec ID : S_TEXT/UTF8
Codec ID/Info : UTF-8 Plain Text
Title : Sub-full
Language : English
Default : No
Forced : No
Text #3
ID : 8
Format : UTF-8
Codec ID : S_TEXT/UTF8
Codec ID/Info : UTF-8 Plain Text
Title : Sub-SDH
Language : English
Default : No
Forced : No
Menu
00:00:00.000 : en:00:00:00.000
00:06:10.579 : en:00:06:10.579
00:14:18.566 : en:00:14:18.566
00:19:06.145 : en:00:19:06.145
00:28:07.144 : en:00:28:07.144
00:33:22.667 : en:00:33:22.667
00:39:34.664 : en:00:39:34.664
00:45:43.407 : en:00:45:43.407
00:53:37.714 : en:00:53:37.714
01:02:15.607 : en:01:02:15.607
01:09:21.949 : en:01:09:21.949
01:15:16.887 : en:01:15:16.887
01:23:38.305 : en:01:23:38.305
01:30:54.824 : en:01:30:54.824
01:35:43.279 : en:01:35:43.279
01:41:12.858 : en:01:41:12.858
Скриншоты
Source vs Encode


Скачать

Скачать торрент!

Как скачивать? · Что такое торрент? · Рейтинг и ограничения

Сайт не распространяет и не хранит электронные версии произведений, а лишь предоставляет доступ к создаваемому пользователями каталогу ссылок на торрент-файлы, которые содержат только списки хеш-сумм

[Профиль] [ЛС]
Показать сообщения:    
Ответить на тему

Текущее время: Сегодня 08:41

Часовой пояс: GMT + 4



Вы не можете начинать темы
Вы не можете отвечать на сообщения
Вы не можете редактировать свои сообщения
Вы не можете удалять свои сообщения
Вы не можете голосовать в опросах
Вы не можете прикреплять файлы к сообщениям
Вы не можете скачивать файлы