Невероятный мастер кунг-фу / Непревзойдённый мастер кунг-фу / The Kung Fu Master / The Incredible Kung-Fu Master / Fei long gong fu jing (Джо Чён / Joe Cheung) [1979, Гонконг, боевые искуссства, DVDRip] AVO (Александр Кашкин-Первомайский)

Ответить на тему
 
Автор Сообщение

user ®

Стаж: 13 лет

Сообщений: 15071

Пост Пост: #1 от 03-Дек-2014 19:40

[Цитировать]

Невероятный мастер кунг-фу / Непревзойдённый мастер кунг-фу / The Kung Fu Master / The Incredible Kung-Fu Master / Fei long gong fu jing
Страна: Гонконг
Жанр: боевые искуссства
Год выпуска: 1979
Продолжительность: 01:29:00
Перевод: Авторский (одноголосый закадровый) Александр Кашкин-Первомайский
Cубтитры: нет
Режиссер: Джо Чён / Joe Cheung
В ролях: Саммо Хун, Стивен Тун, Сесилия Вон, Филлип Коу, Лэй Хойсан, Ман Хой, Эдди Сун, Чун Фат, Хуан Ха, Питер Чань, Остин Вай
Описание: Молодой боец кунг-фу, Чин - страстный поклонник боевых искусств. Но, к его разочарованию, оба мастера, у которых он обучается, выгоняют его из своих школ. Так он попадает к великому учителю Тон Пою (Саммо Хун) и начинает тренироваться у него. Но главное испытание ожидает Чина впереди: он в смертельной схватке должен доказать своё превосходство перед маньчжурским мастером.
Сэмпл: http://multi-up.com/1017201
Релиз группы:
Качество видео: DVDRip
Формат видео: AVI
Видео: 720x304 (2.37:1), 25 fps, XviD build 50 ~2154 kbps avg, 0.39 bit/pixel
Аудио: 48 kHz, AC3 Dolby Digital, 2/0 (L,R) ch, ~192 kbps
MediaInfo
Format : AVI
Format/Info : Audio Video Interleave
File size : 1,47 Гбайт
Duration : 1 ч. 29 м.
Overall bit rate : 2357 Кбит/сек
Writing application : VirtualDubMod 1.5.10.3 | www.virtualdub-fr.org || (build 2550/release)
Writing library : VirtualDubMod build 2550/release
Видео
ID : 0
Format : MPEG-4 Visual
Format profile : Advanced Simple@L5
Format settings, BVOP : 2
Format settings, QPel : Нет
Format settings, GMC : Без точки перехода
Format settings, Matrix : Default (MPEG)
Codec ID : XVID
Codec ID/Hint : XviD
Duration : 1 ч. 29 м.
Bit rate : 2155 Кбит/сек
Width : 720 пикселей
Height : 304 пикселя
Display aspect ratio : 2,35:1
Frame rate : 25,000 кадров/сек
Color space : YUV
Chroma subsampling : 4:2:0
Bit depth : 8 бит
Scan type : Прогрессивная
Compression mode : С потерями
Bits/(Pixel*Frame) : 0.394
Stream size : 1,34 Гбайт (91%)
Writing library : XviD 1.2.1 (UTC 2008-12-04)
Аудио
ID : 1
Format : AC-3
Format/Info : Audio Coding 3
Mode extension : CM (complete main)
Format settings, Endianness : Big
Codec ID : 2000
Duration : 1 ч. 29 м.
Bit rate mode : Постоянный
Bit rate : 192 Кбит/сек
Channel(s) : 2 канала
Channel positions : Front: L R
Sampling rate : 48,0 КГц
Bit depth : 16 бит
Compression mode : С потерями
Stream size : 122 Мбайт (8%)
Alignment : Разделение по промежуткам
Interleave, duration : 40 мс. (1,00 видеокадр)
Interleave, preload duration : 500 мс.
Скриншот c названием фильма Скриншоты Исходник
[url=http://***/forum/viewtopic.php?t=1080247]http://***/forum/viewtopic.php?t=1080247[/url]
Скачать

Скачать торрент! Невероятный мастер кунг-фу / Непревзойдённый мастер кунг-фу / The Kung Fu Master / The Incredible Kung-Fu Master / Fei long gong fu jing (Джо Чён / Joe Cheung) [1979, Гонконг, боевые искуссства, DVDRip] AVO (Александр Кашкин-Первомайский)

Как скачивать? · Что такое торрент? · Рейтинг и ограничения

Сайт не распространяет и не хранит электронные версии произведений, а лишь предоставляет доступ к создаваемому пользователями каталогу ссылок на торрент-файлы, которые содержат только списки хеш-сумм

[Профиль] [ЛС]
Показать сообщения:    
Ответить на тему

Текущее время: Сегодня 17:15

Часовой пояс: GMT + 4



Вы не можете начинать темы
Вы не можете отвечать на сообщения
Вы не можете редактировать свои сообщения
Вы не можете удалять свои сообщения
Вы не можете голосовать в опросах
Вы не можете прикреплять файлы к сообщениям
Вы не можете скачивать файлы