Парни из Бомбея / Bombay Boys (Кайзад Густад / Kaizad Gustad) [1998, Индия, Комедия, драма, SATRip] MVO (Zee Tv)

Ответить на тему
 
Автор Сообщение

user ®

Стаж: 12 лет

Сообщений: 15092

Пост Пост: #1 от 03-Дек-2014 19:40

[Цитировать]

Парни из Бомбея / Bombay Boys
Страна: Индия
Жанр: Комедия, драма
Год выпуска: 1998
Продолжительность: 01:35:03
Перевод: Любительский (многоголосый закадровый) Zee Tv
Cубтитры: нет
Режиссер: Кайзад Густад / Kaizad Gustad
В ролях: Нэвин Эндрюс, Рахул Бозе, Насируддин Шах, Тара Дешпанде, Рошан Сетх, Александр Гиффорд, Тарун Шахани, Люк Кенни, Шиули Субайя, Бхарат Шетти, Притви Зутши, Камал Адиб, Абдул Сабри, Радж Панджаби, Мадхав Широдкар, Викас Шетти, Киран Амру, Винай Патхак, Раджу Самала, Четан Пармар, Рохит Рай, Шивкумар Субраманиям, Джей Менон, Дхармендра Рана, Прити Коппикар, Самир Кханна, Химаншу Бхатт, Шишир Шарма, Никхил Шарма, Сунил Шенде, Ришма Малик, Кайзад Густад
Описание: Кришна живет в Нью-Йорке, но он мечтает стать актером в Болливуде, поэтому он отправляется в Индию. Рикардо Фернандез из Сиднея тоже отправляется в путь для того, чтобы разыскать потерявшегося брата в Бомбее. Ззрас Мистри из Лондона уезжает в Бомбей на поиски своей настоящей любви. Пути всех троих пересекаются в Бомбее, и для того, чтобы каждый достиг своей цели, им приходится столкнуться и с мафией, и с полицией и с другими жизненными трудностями...
Доп. информация: Релиз: Кинозал.ТВ
Запись фильма, риппер, удаление рекламы: oktober (Спасибо!)
Сэмпл: http://multi-up.com/1017220
Качество видео: SATRip
Формат видео: AVI
Видео: XviD MPEG-4, 720x400 (1.80:1), 25 fps, 1499 kbps avg
Аудио: AC3 Dolby Digital, 48 kHz, 2/0 (L,R) ch, 192 kbps
MediaInfo
General
Complete name : F:\Parni.Iz.Bombeya.1998.SATRip.XviD.Oktober.avi
Format : AVI
Format/Info : Audio Video Interleave
File size : 1.13 GiB
Duration : 1h 35mn
Overall bit rate : 1 701 Kbps
Writing application : VirtualDubMod 1.5.10.2 (build 2540/release)
Writing library : VirtualDubMod build 2540/release
Video
ID : 0
Format : MPEG-4 Visual
Format profile : Simple@L1
Format settings, BVOP : No
Format settings, QPel : No
Format settings, GMC : No warppoints
Format settings, Matrix : Default (H.263)
Codec ID : XVID
Codec ID/Hint : XviD
Duration : 1h 35mn
Bit rate : 1 499 Kbps
Width : 720 pixels
Height : 400 pixels
Display aspect ratio : 16/9
Frame rate : 25.000 fps
Resolution : 24 bits
Colorimetry : 4:2:0
Scan type : Progressive
Bits/(Pixel*Frame) : 0.208
Stream size : 1 019 MiB (88%)
Writing library : Lavc53.33.0
Audio
ID : 1
Format : AC-3
Format/Info : Audio Coding 3
Codec ID : 2000
Duration : 1h 35mn
Bit rate mode : Constant
Bit rate : 192 Kbps
Channel(s) : 2 channels
Channel positions : L R
Sampling rate : 48.0 KHz
Stream size : 131 MiB (11%)
Alignment : Split accross interleaves
Interleave, duration : 40 ms (1.00 video frame)
Interleave, preload duration : 500 ms
Скриншоты
Скачать

Скачать торрент! Парни из Бомбея / Bombay Boys (Кайзад Густад / Kaizad Gustad) [1998, Индия, Комедия, драма, SATRip] MVO (Zee Tv)

Как скачивать? · Что такое торрент? · Рейтинг и ограничения

Сайт не распространяет и не хранит электронные версии произведений, а лишь предоставляет доступ к создаваемому пользователями каталогу ссылок на торрент-файлы, которые содержат только списки хеш-сумм

[Профиль] [ЛС]
Показать сообщения:    
Ответить на тему

Текущее время: Сегодня 16:16

Часовой пояс: GMT + 4



Вы не можете начинать темы
Вы не можете отвечать на сообщения
Вы не можете редактировать свои сообщения
Вы не можете удалять свои сообщения
Вы не можете голосовать в опросах
Вы не можете прикреплять файлы к сообщениям
Вы не можете скачивать файлы