Ягодный пирог (Елена Чернова) [2011, Анимационный фильм, DVDScreener]

Ответить на тему
 
Автор Сообщение

user ®

Стаж: 7 лет 7 месяцев

Сообщений: 20008

Пост Пост: #1 от 03-Дек-2014 16:30

[Цитировать]

Ягодный пирог
Страна: Россия
Жанр: Анимационный фильм
Продолжительность: 00:06:32
Год выпуска: 2011
Русские субтитры: нет
Режиссёр: Елена Чернова
Описание: Пилотная серия развлекательно-познавательного сериала для детей дошкольного возраста.
Дружная коровья семья выезжает на дачу. Там телят Зо и Бо ждёт их верный товарищ поросенок Коля. Друзья отправляются за ягодами в лес, где их ждут удивительные открытия. Дети находят не только ягоды, но и новых друзей.
Доп. информация: Лучший детский фильм Открытый фестиваль анимационного кино, Суздаль (Россия), 2012
Приз зрительских симпатий Фестиваль отечественного кино ''Московская премьера'', Москва (Россия), 2012
Международный кинофестиваль им. А. Тарковского 'Зеркало', Иваново (Россия), 2012
Большой фестиваль мультфильмов, Воронеж (Россия), 2012
Большой фестиваль мультфильмов, Москва (Россия), 2012
Московский международный кинофестиваль (ММКФ), Москва (Россия), 2012
Международный кинофестиваль "Меридианы Тихого", Владивосток (Россия), 2012
Фестиваль русского кино в Лондоне, Лондон (Великобритания), 2012
Фестиваль российского кино 'Окно в Европу', Выборг (Россия), 2011
Большой фестиваль мультфильмов, Москва (Россия), 2011
Международный фестиваль анимационных фильмов «КРОК», Киев (Украина), 2011
Качество: DVDScreener
Формат: AVI
Видео: DIVX, 720x416, 25fps, 1640kbps
Аудио: MPEG Layer 3, 48kHz, 192kbps
Субтитры: отсутствуют
Подробные технические данные
Полное имя :Ягодный пирог.aviФормат : AVIФормат/Информация : Audio Video InterleaveРазмер файла : 86,1 МбайтПродолжительность : 6 м. 32 с.Общий поток : 1842 Кбит/секПрограмма кодирования : VirtualDubMod 1.5.10.3 | www.virtualdub-fr.org || (build 2550/release)Библиотека кодирования : VirtualDubMod build 2550/release
ВидеоИдентификатор : 0Формат : MPEG-4 VisualПрофиль формата : Advanced Simple@L5Параметр BVOP формата : 1Параметр QPel формата : НетПараметр GMC формата : Без точки переходаПараметр матрицы формата : Default (H.263)Идентификатор кодека : DIVXИдентификатор кодека/Информация : Project MayoИдентификатор кодека/Подсказка : DivX 4Продолжительность : 6 м. 32 с.Битрейт : 1640 Кбит/секШирина : 720 пикселейВысота : 416 пикселейСоотношение сторон : 1,731Частота кадров : 25,000 кадров/секЦветовое пространство : YUVСубдискретизация насыщенности : 4:2:0Битовая глубина : 8 битТип развёртки : ПрогрессивнаяМетод сжатия : С потерямиБит/(Пиксели*Кадры) : 0.219Размер потока : 76,7 Мбайт (89%)Библиотека кодирования : XviD 1.2.1 (UTC 2008-12-04)
АудиоИдентификатор : 1Формат : MPEG AudioВерсия формата : Version 1Профиль формата : Layer 3Идентификатор кодека : 55Идентификатор кодека/Подсказка : MP3Продолжительность : 6 м. 32 с.Вид битрейта : ПостоянныйБитрейт : 192 Кбит/секКаналы : 2 каналаЧастота : 48,0 КГцМетод сжатия : С потерямиРазмер потока : 8,98 Мбайт (10%)Выравнивание : Соединение по промежуткамПродолжительность промежутка : 40 мс. (1,00 видеокадр)Время предзагрузки промежутка : 504 мс.Библиотека кодирования : LAME3.99rНастройки программы : -m s -V 4 -q 0 -lowpass 18.6 -b 192
Скриншоты
Скачать

Скачать торрент!

Как скачивать? · Что такое торрент? · Рейтинг и ограничения

Сайт не распространяет и не хранит электронные версии произведений, а лишь предоставляет доступ к создаваемому пользователями каталогу ссылок на торрент-файлы, которые содержат только списки хеш-сумм

[Профиль] [ЛС]
Показать сообщения:    
Ответить на тему

Текущее время: Сегодня 03:50

Часовой пояс: GMT + 4



Вы не можете начинать темы
Вы не можете отвечать на сообщения
Вы не можете редактировать свои сообщения
Вы не можете удалять свои сообщения
Вы не можете голосовать в опросах
Вы не можете прикреплять файлы к сообщениям
Вы не можете скачивать файлы