Спасение / Salvation (Кристиан Левринг / Kristian Levring) [2014, Драма, Вестерн, BDRip-AVC] DVO (Jaskier) + Original

Ответить на тему
 
Автор Сообщение

user ®

Стаж: 7 лет 7 месяцев

Сообщений: 20008

Пост Пост: #1 от 03-Дек-2014 16:30

[Цитировать]

Спасение | Salvation -Год выпуска: 2014
Страна: Дания, Великобритания, ЮАР
Жанр: драма, вестерн
Продолжительность: ~01:32:00-Перевод: Профессиональный (двухголосый закадровый) Студия Jaskier
Субтитры: Нет-Режиссёр: Кристиан Левринг.-В ролях: Мадс Миккелсен, Ева Грин, Джеффри Дин Морган, Эрик Кантона, Микаэл Персбрандт, Дуглас Хеншэлл, Джонатан Прайс и другие.-Описание: У трудолюбивого фермера для счастья есть все: большое хозяйство, умная красавица жена и любимые дети. Но его счастье длилось не долго. Местная бандитская группировка жестко расправилась с его семьей. Испытав сильнейшую душевную боль, Джон поклялся, во что бы то ни стало, отомстить банде за пролитую кровь родных людей. Спустя некоторое время фермеру удается напасть на след преступной банды. Накопленная боль утраты, запланированная месть и желание расправы принесли свои плоды, Джон, не думая о своих односельчанах, запускает машину насилия. Тихая деревушка погрязла в предательствах, жестоких и мучительных убийствах. Головорезы, которые не пощадили его семью, хотят покончить с мстительным фермером. Все кто был на стороне справедливого Джона, все кто его поддерживал, принимали мучительную смерть от рук бандитов. Будут ли односельчане дальше стоять за правоту или перейдут на темную сторону бандитов, для того чтобы утихомирить обезумевшего Джона и остановить волну насилий?-Перевод: Алексей Матвеев
Роли озвучивали: Денис Строев, Таисия Тришина.-Сэмпл-Качество: BDRip-AVC
Формат: MKV-Видео:
AVC, 1024x426, 24 fps, ~2511 kbps, ~0.240 bit/pixel-Аудио: AC3, 48 kHz, 6 ch, 448 kbps Русский
Аудио 2: AC3, 48 kHz, 6 ch, 448 kbps Оригинал (Английский)-

MediaInfo
Общее
Уникальный идентификатор                 : 234780393155726771277972943432379760692 (0xB0A10F17914ABCA5A98574B2829F8034)
Полное имя                               : D:\Downloads\Salvation Jaskier\The_Salvation.2014.BDRip.AVC.Jaskier.mkv
Формат                                   : Matroska
Версия формата                           : Version 4 / Version 2
Размер файла                             : 2,19 Гбайт
Продолжительность                        : 1 ч. 32 м.
Общий поток                              : 3409 Кбит/сек
Название фильма                          : The Salvation 2014 BDRip AVC Jaskier
Дата кодирования                         : UTC 2014-12-03 10:15:56
Программа кодирования                    : mkvmerge v7.1.0 ('Good Love') 64bit built on Jul 27 2014 13:06:55
Библиотека кодирования                   : libebml v1.3.0 + libmatroska v1.4.1
_STATISTICS_WRITING_APP                  : mkvmerge v7.1.0 ('Good Love') 64bit built on Jul 27 2014 13:06:55
_STATISTICS_WRITING_DATE_UTC             : 2014-12-03 10:15:56
_STATISTICS_TAGS                         : BPS DURATION NUMBER_OF_FRAMES NUMBER_OF_BYTES
DURATION                                 : 01:31:59.840000000
NUMBER_OF_FRAMES                         : 172495
NUMBER_OF_BYTES                          : 309111040
Видео
Идентификатор                            : 1
Формат                                   : AVC
Формат/Информация                        : Advanced Video Codec
Профиль формата                          : High@L4.1
Параметр CABAC формата                   : Да
Параметр ReFrames формата                : 9 кадров
Идентификатор кодека                     : V_MPEG4/ISO/AVC
Продолжительность                        : 1 ч. 32 м.
Битрейт                                  : 2511 Кбит/сек
Ширина                                   : 1024 пикселя
Высота                                   : 426 пикселей
Соотношение сторон                       : 2,40:1
Режим частоты кадров                     : Постоянный
Частота кадров                           : 24,000 кадра/сек
Цветовое пространство                    : YUV
Субдискретизация насыщенности            : 4:2:0
Битовая глубина                          : 8 бит
Тип развёртки                            : Прогрессивная
Бит/(Пиксели*Кадры)                      : 0.240
Размер потока                            : 1,57 Гбайт (72%)
Заголовок                                : Enigma-Vladislav71
Библиотека кодирования                   : x264 core 133 r2334 a3ac64b
Настройки программы                      : cabac=1 / ref=9 / deblock=1:-3:-3 / analyse=0x3:0x113 / me=umh / subme=11 / psy=1 / psy_rd=1.00:0.15 / mixed_ref=1 / me_range=32 / chroma_me=1 / trellis=2 / 8x8dct=1 / cqm=0 / deadzone=21,11 / fast_pskip=0 / chroma_qp_offset=-3 / threads=12 / lookahead_threads=2 / sliced_threads=0 / nr=0 / decimate=0 / interlaced=0 / bluray_compat=0 / constrained_intra=0 / bframes=9 / b_pyramid=2 / b_adapt=2 / b_bias=0 / direct=3 / weightb=1 / open_gop=0 / weightp=2 / keyint=240 / keyint_min=24 / scenecut=40 / intra_refresh=0 / rc=2pass / mbtree=0 / bitrate=2511 / ratetol=1.0 / qcomp=0.60 / qpmin=0 / qpmax=69 / qpstep=4 / cplxblur=20.0 / qblur=0.5 / ip_ratio=1.40 / pb_ratio=1.30 / aq=1:1.00
Язык                                     : English
Default                                  : Да
Forced                                   : Нет
Основные цвета                           : BT.709
Характеристики трансфера                 : BT.709
Коэффициенты матрицы                     : BT.709
_STATISTICS_WRITING_APP                  : mkvmerge v7.1.0 ('Good Love') 64bit built on Jul 27 2014 13:06:55
_STATISTICS_WRITING_DATE_UTC             : 2014-12-03 10:15:56
_STATISTICS_TAGS                         : BPS DURATION NUMBER_OF_FRAMES NUMBER_OF_BYTES
DURATION                                 : 01:32:00.792000000
NUMBER_OF_FRAMES                         : 132499
NUMBER_OF_BYTES                          : 1732847865
Аудио #1
Идентификатор                            : 2
Формат                                   : AC-3
Формат/Информация                        : Audio Coding 3
Расширение режима                        : CM (complete main)
Параметр Endianness формата              : Big
Идентификатор кодека                     : A_AC3
Продолжительность                        : 1 ч. 32 м.
Вид битрейта                             : Постоянный
Битрейт                                  : 448 Кбит/сек
Каналы                                   : 6 каналов
Расположение каналов                     : Front: L C R, Side: L R, LFE
Частота                                  : 48,0 КГц
Битовая глубина                          : 16 бит
Метод сжатия                             : С потерями
Размер потока                            : 295 Мбайт (13%)
Язык                                     : Russian
Default                                  : Да
Forced                                   : Нет
Аудио #2
Идентификатор                            : 3
Формат                                   : AC-3
Формат/Информация                        : Audio Coding 3
Расширение режима                        : CM (complete main)
Параметр Endianness формата              : Big
Идентификатор кодека                     : A_AC3
Продолжительность                        : 1 ч. 32 м.
Вид битрейта                             : Постоянный
Битрейт                                  : 448 Кбит/сек
Каналы                                   : 6 каналов
Расположение каналов                     : Front: L C R, Side: L R, LFE
Частота                                  : 48,0 КГц
Битовая глубина                          : 16 бит
Метод сжатия                             : С потерями
Размер потока                            : 295 Мбайт (13%)
Язык                                     : English
Default                                  : Нет
Forced                                   : Нет
Скриншоты Ссылка на предыдущие и альтернативные раздачи
[url=http://***/forum/tracker.php?nm=salvation%20kristian%20levring]http://***/forum/tracker.php?nm=salvation...istian%20levring[/url]
Скачать

Скачать торрент!

Как скачивать? · Что такое торрент? · Рейтинг и ограничения

Сайт не распространяет и не хранит электронные версии произведений, а лишь предоставляет доступ к создаваемому пользователями каталогу ссылок на торрент-файлы, которые содержат только списки хеш-сумм

[Профиль] [ЛС]
Показать сообщения:    
Ответить на тему

Текущее время: Сегодня 20:38

Часовой пояс: GMT + 4



Вы не можете начинать темы
Вы не можете отвечать на сообщения
Вы не можете редактировать свои сообщения
Вы не можете удалять свои сообщения
Вы не можете голосовать в опросах
Вы не можете прикреплять файлы к сообщениям
Вы не можете скачивать файлы