Крепость на песке / The Castle of Sand / Suna no Utsuwa (Ёситаро Номура / Yoshitaro Nomura) [1974, Япония, детектив, драма, HDRip] original Jap + Sub (rus) [Avallac\'h]

Ответить на тему
 
Автор Сообщение

user ®

Стаж: 13 лет

Сообщений: 15071

Пост Пост: #1 от 03-Дек-2014 05:55

[Цитировать]

Крепость на песке / The Castle of Sand / Suna no Utsuwa- -Страна: Япония
Жанр: детектив, драма
Год выпуска: 1974
Продолжительность: 02:22:57-Перевод: Субтитры [Avallac'h]-Cубтитры: русские - вшитые
Оригинальная аудиодорожка: нет
Режиссер: Ёситаро Номура / Yoshitaro Nomura
В ролях: Тэцуро Тамба, Гоу Като, Кенсаку Морита, Ёко Симада, Карин Ямагути, Ёси Като, Кадзухидэ Харута, Тисю Рю, Джанко Натсу, Сёдзи Матсуяма
Описание: кранизация одноименного романа Мацумото Сэйтё.
Социальный детектив, считающийся классикой японского кино. Фильм повествует об упорстве двух полицейских, расследующих нераскрытое убийство и судьбе преступника, который из-за своего тяжелого прошлого убивает человека. Великолепный перемежающийся монтаж сцен совещания следователей, на котором обнаруживается истина; выступление с собственной симфонией талантливого дирижера; и воспоминания о путешествии через всю страну ребенка с отцом — тяготящее его мрачное прошлое..
В 1975 году эта лента была удостоена почетного диплома IX Московского международного кинофестиваля. В 2004 году книгу повторно экранизируют в виде сериала.
Релиз от -
Сэмпл: http://multi-up.com/1017095
Качество видео: HDRip
Формат видео: AVI
Видео: MPEG-4 Visual at 1011 Кбит/сек; 720 x 304 (2.368) at 23.976 fps
Аудио: AC-3 at 448 Кбит/сек; 6 каналов, 48,0 КГц
Автор -
MediaInfo
Общее
Полное имя : D:\Фильмы\Азиатские\Крепость на песке\The Castle of Sand.1974.HDRip.XviD.1400MB. rip by [Assassin's Creed].avi
Формат : AVI
Формат/Информация : Audio Video Interleave
Размер файла : 1,47 Гбайт
Продолжительность : 2 ч. 22 м.
Общий поток : 1468 Кбит/сек
Программа кодирования : VirtualDubMod 1.5.10.3 | www.virtualdub-fr.org || (build 2550/release)
Библиотека кодирования : VirtualDubMod build 2550/release
Видео
Идентификатор : 0
Формат : MPEG-4 Visual
Профиль формата : Advanced Simple@L5
Параметр BVOP формата : 1
Параметр QPel формата : Нет
Параметр GMC формата : Без точки перехода
Параметр матрицы формата : Default (MPEG)
Идентификатор кодека : XVID
Идентификатор кодека/Подсказка : XviD
Продолжительность : 2 ч. 22 м.
Битрейт : 1011 Кбит/сек
Ширина : 720 пикселей
Высота : 304 пикселя
Соотношение сторон : 2,35:1
Частота кадров : 23,976 кадра/сек
Цветовое пространство : YUV
Субдискретизация насыщенности : 4:2:0
Битовая глубина : 8 бит
Тип развёртки : Прогрессивная
Метод сжатия : С потерями
Бит/(Пиксели*Кадры) : 0.193
Размер потока : 1,01 Гбайт (69%)
Библиотека кодирования : XviD 1.2.1 (UTC 2008-12-04)
Аудио
Идентификатор : 1
Формат : AC-3
Формат/Информация : Audio Coding 3
Расширение режима : CM (complete main)
Параметр Endianness формата : Big
Идентификатор кодека : 2000
Продолжительность : 2 ч. 22 м.
Вид битрейта : Постоянный
Битрейт : 448 Кбит/сек
Каналы : 6 каналов
Расположение каналов : Front: L C R, Side: L R, LFE
Частота : 48,0 КГц
Битовая глубина : 16 бит
Метод сжатия : С потерями
Размер потока : 458 Мбайт (31%)
Выравнивание : Разделение по промежуткам
Продолжительность промежутка : 42 мс. (1,00 видеокадр)
Время предзагрузки промежутка : 500 мс.
Скриншот c названием фильма Скриншоты
Скачать

Скачать торрент! Крепость на песке / The Castle of Sand / Suna no Utsuwa (Ёситаро Номура / Yoshitaro Nomura) [1974, Япония, детектив, драма, HDRip] original Jap + Sub (rus) [Avallac\'h]

Как скачивать? · Что такое торрент? · Рейтинг и ограничения

Сайт не распространяет и не хранит электронные версии произведений, а лишь предоставляет доступ к создаваемому пользователями каталогу ссылок на торрент-файлы, которые содержат только списки хеш-сумм

[Профиль] [ЛС]
Показать сообщения:    
Ответить на тему

Текущее время: Сегодня 17:08

Часовой пояс: GMT + 4



Вы не можете начинать темы
Вы не можете отвечать на сообщения
Вы не можете редактировать свои сообщения
Вы не можете удалять свои сообщения
Вы не можете голосовать в опросах
Вы не можете прикреплять файлы к сообщениям
Вы не можете скачивать файлы