Проект Икс / Project X (Джонатан Каплан / Jonathan Kaplan) [1987, США, фантастика, триллер, BDRip 1080p] 2х AVO + Sub Eng + Original Eng

Ответить на тему
 
Автор Сообщение

user ®

Стаж: 7 лет 7 месяцев

Сообщений: 20008

Пост Пост: #1 от 03-Дек-2014 05:55

[Цитировать]

Проект Икс / Project X
Страна: США
Студия: Amercent Films, American Entertainment Partners L.P., Parkes/Lasker productions
Жанр: фантастика, триллер
Год выпуска: 1987
Продолжительность: 01:47:40
Перевод 1: Авторский (одноголосый закадровый) В. Горчаков
Перевод 2: Авторский (одноголосый закадровый) С. Визгунов
Cубтитры: английские
Оригинальная аудиодорожка: английский
Режиссер: Джонатан Каплан / Jonathan Kaplan
В ролях: Мэттью Бродерик, Хелен Хант, Билл Сэдлер, Джонни Рэй МакГи, Джонатан Старк, Робин Гэммелл
Шимпанзе: Уилли, Okko, Karanja, Люк, Гарри, Артур, Clafu, Люси, Лулу, Mousie
Описание: У молодого призывника ВВС Джимми Гэррета есть повод гордиться собой: его привлекли к участию в сверхсекретном правительственном проекте. Джимми должен обучать шимпанзе летным навыкам на специальном тренажере. Но во время экспериментов Гэррет обнаруживает, что его подопечная подвергается высокому уровню радиации. Рискуя попасть под трибунал, он объединяет свои усилия с ученой Тери, научившую шимпанзе языку знаков, и начинает бороться за спасение обезьяны от неминуемой гибели…
II Сэмпл II IMDB II
Доп. информация:
За исходник спасибо ilgizik01
За дорогу с Сергеем Визгуновым спасибо edich2
Тип релиза: BDRip 1080p
Контейнер: MKV
Видео: AVC / 1920x1040 / 1.85:1 / 23.976fps / Bit rate 15000Kbps
Аудио 1: DTS / 48.0KHz / 24bits / 6ch. / 1509kbps / rus / avo / В. Горчаков
Аудио 2: AC3 / 48.0KHz / 2ch. / 192kbps / rus / avo / С. Визгунов
Аудио 3: AC3 / 48.0KHz / 6ch. / 640kbps / eng
Формат субтитров: softsub (SRT)
MediaInfo
Общее
Уникальный идентификатор : 237339995576169995640832312806467274273 (0xB28E053C15FD2CEEBA6078B73E5D8621)
Полное имя : E:\torrent\Project.X.1987.BDRip.1080p.Sub.Eng.mkv
Формат : Matroska
Версия формата : Version 4 / Version 2
Размер файла : 13,0 Гбайт
Продолжительность : 1 ч. 47 м.
Общий поток : 17,3 Мбит/сек
Дата кодирования : UTC 2014-11-28 08:17:13
Программа кодирования : mkvmerge v7.2.0 ('On Every Street') 64bit built on Sep 13 2014 15:52:10
Библиотека кодирования : libebml v1.3.0 + libmatroska v1.4.1
DURATION : 01:43:20.652000000
NUMBER_OF_FRAMES : 1228
NUMBER_OF_BYTES : 41334
_STATISTICS_WRITING_APP : mkvmerge v7.2.0 ('On Every Street') 64bit built on Sep 13 2014 15:52:10
_STATISTICS_WRITING_DATE_UTC : 2014-11-28 08:17:13
_STATISTICS_TAGS : BPS DURATION NUMBER_OF_FRAMES NUMBER_OF_BYTES
Видео
Идентификатор : 1
Формат : AVC
Формат/Информация : Advanced Video Codec
Профиль формата : High@L4.1
Параметр CABAC формата : Да
Параметр ReFrames формата : 4 кадра
Идентификатор кодека : V_MPEG4/ISO/AVC
Продолжительность : 1 ч. 47 м.
Битрейт : 15,0 Мбит/сек
Ширина : 1920 пикселей
Высота : 1040 пикселей
Соотношение сторон : 1,85:1
Режим частоты кадров : Постоянный
Частота кадров : 23,976 кадра/сек
Цветовое пространство : YUV
Субдискретизация насыщенности : 4:2:0
Битовая глубина : 8 бит
Тип развёртки : Прогрессивная
Бит/(Пиксели*Кадры) : 0.313
Размер потока : 11,0 Гбайт (85%)
Заголовок : Project.X.1987.BDRip.1080p.Sub.Eng
Библиотека кодирования : x264 core 133 r2334 a3ac64b
Настройки программы : cabac=1 / ref=4 / deblock=1:-3:-3 / analyse=0x3:0x133 / me=umh / subme=11 / psy=1 / psy_rd=1.00:0.10 / mixed_ref=1 / me_range=64 / chroma_me=1 / trellis=2 / 8x8dct=1 / cqm=0 / deadzone=21,11 / fast_pskip=0 / chroma_qp_offset=-3 / threads=12 / lookahead_threads=3 / sliced_threads=0 / nr=0 / decimate=1 / interlaced=0 / bluray_compat=0 / constrained_intra=0 / bframes=10 / b_pyramid=2 / b_adapt=2 / b_bias=0 / direct=3 / weightb=1 / open_gop=0 / weightp=2 / keyint=250 / keyint_min=23 / scenecut=40 / intra_refresh=0 / rc_lookahead=40 / rc=2pass / mbtree=0 / bitrate=15000 / ratetol=1.0 / qcomp=0.60 / qpmin=0 / qpmax=69 / qpstep=4 / cplxblur=20.0 / qblur=0.5 / vbv_maxrate=50000 / vbv_bufsize=62500 / nal_hrd=none / ip_ratio=1.40 / pb_ratio=1.30 / aq=1:1.00
Default : Да
Forced : Нет
DURATION : 01:47:40.413000000
NUMBER_OF_FRAMES : 154895
NUMBER_OF_BYTES : 12102861326
_STATISTICS_WRITING_APP : mkvmerge v7.2.0 ('On Every Street') 64bit built on Sep 13 2014 15:52:10
_STATISTICS_WRITING_DATE_UTC : 2014-11-28 08:17:13
_STATISTICS_TAGS : BPS DURATION NUMBER_OF_FRAMES NUMBER_OF_BYTES
Аудио #1
Идентификатор : 2
Формат : DTS
Формат/Информация : Digital Theater Systems
Режим : 16
Параметр Endianness формата : Big
Идентификатор кодека : A_DTS
Продолжительность : 1 ч. 47 м.
Вид битрейта : Постоянный
Битрейт : 1509 Кбит/сек
Каналы : 6 каналов
Расположение каналов : Front: L C R, Side: L R, LFE
Частота : 48,0 КГц
Битовая глубина : 24 бит
Метод сжатия : С потерями
Размер потока : 1,13 Гбайт (9%)
Заголовок : rus / avo / DTS / 48Khz / 24bits / 6ch / 1509Kbps
Язык : Russian
Default : Да
Forced : Нет
Аудио #2
Идентификатор : 3
Формат : AC-3
Формат/Информация : Audio Coding 3
Расширение режима : CM (complete main)
Параметр Endianness формата : Big
Идентификатор кодека : A_AC3
Продолжительность : 1 ч. 47 м.
Вид битрейта : Постоянный
Битрейт : 192 Кбит/сек
Каналы : 2 канала
Расположение каналов : Front: L R
Частота : 48,0 КГц
Битовая глубина : 16 бит
Метод сжатия : С потерями
Размер потока : 148 Мбайт (1%)
Заголовок : rus / avo / AC3 / 48Khz / 6ch / 1509Kbps
Язык : Russian
Default : Нет
Forced : Нет
Аудио #3
Идентификатор : 4
Формат : AC-3
Формат/Информация : Audio Coding 3
Расширение режима : CM (complete main)
Параметр Endianness формата : Big
Идентификатор кодека : A_AC3
Продолжительность : 1 ч. 47 м.
Вид битрейта : Постоянный
Битрейт : 640 Кбит/сек
Каналы : 6 каналов
Расположение каналов : Front: L C R, Side: L R, LFE
Частота : 48,0 КГц
Битовая глубина : 16 бит
Метод сжатия : С потерями
Размер потока : 493 Мбайт (4%)
Заголовок : eng / AC3 / 48Khz / 6ch / 640Kbps
Язык : English
Default : Нет
Forced : Нет
Текст
Идентификатор : 5
Формат : UTF-8
Идентификатор кодека : S_TEXT/UTF8
Идентификатор кодека/Информация : UTF-8 Plain Text
Заголовок : subtitle eng
Язык : English
Default : Нет
Forced : Нет
Скриншот с названием фильма Скриншоты Сравнение с исходником x264 info
x264 [info]: using SAR=1/1
x264 [info]: using cpu capabilities: MMX2 SSE2Fast SSSE3 SSE4.2 AVX
x264 [info]: profile Main, level 4.1
x264 [info]: frame I:954 Avg QP:15.18 size:175517
x264 [info]: frame P:31725 Avg QP:16.03 size:119804
x264 [info]: frame B:122216 Avg QP:17.96 size: 65347
x264 [info]: consecutive B-frames: 1.9% 1.9% 4.5% 20.9% 15.5% 33.6% 8.6% 8.7% 2.5% 1.3% 0.6%
x264 [info]: mb I I16..4: 19.9% 0.0% 80.1%
x264 [info]: mb P I16..4: 60.0% 0.0% 0.0% P16..4: 37.3% 0.0% 0.0% 0.0% 0.0% skip: 2.7%
x264 [info]: mb B I16..4: 34.3% 0.0% 0.0% B16..8: 32.3% 0.0% 0.0% direct:26.3% skip: 7.1% L0:28.0% L1:31.1% BI:40.9%
x264 [info]: final ratefactor: 17.23
x264 [info]: direct mvs spatial:99.9% temporal:0.1%
x264 [info]: coded y,uvDC,uvAC intra: 93.6% 79.4% 43.7% inter: 52.5% 49.1% 1.4%
x264 [info]: i16 v,h,dc,p: 18% 12% 55% 15%
x264 [info]: i4 v,h,dc,ddl,ddr,vr,hd,vl,hu: 23% 18% 14% 8% 8% 8% 6% 7% 6%
x264 [info]: i8c dc,h,v,p: 51% 19% 26% 5%
x264 [info]: Weighted P-Frames: Y:4.5% UV:2.4%
x264 [info]: kb/s:14803.59
x264 [total]: encoded 154895 frames, 27.95 fps, 14803.59 kb/s
Скачать

Скачать торрент!

Как скачивать? · Что такое торрент? · Рейтинг и ограничения

Сайт не распространяет и не хранит электронные версии произведений, а лишь предоставляет доступ к создаваемому пользователями каталогу ссылок на торрент-файлы, которые содержат только списки хеш-сумм

[Профиль] [ЛС]
Показать сообщения:    
Ответить на тему

Текущее время: Сегодня 10:10

Часовой пояс: GMT + 4



Вы не можете начинать темы
Вы не можете отвечать на сообщения
Вы не можете редактировать свои сообщения
Вы не можете удалять свои сообщения
Вы не можете голосовать в опросах
Вы не можете прикреплять файлы к сообщениям
Вы не можете скачивать файлы