Тяжелый случай / Hard Luck (Марио Ван Пиблз / Mario Van Peebles) [2006, США, триллер, драма, криминал, BDRip 720p] MVO + Original Eng + Subs (Rus, Eng)

Ответить на тему
 
Автор Сообщение

user ®

Стаж: 7 лет 7 месяцев

Сообщений: 20008

Пост Пост: #1 от 03-Дек-2014 05:55

[Цитировать]

Тяжелый случай / Hard Luck- Страна: США
Жанр: триллер, драма, криминал
Год выпуска: 2006
Продолжительность: 01:41:21
Перевод: Профессиональный (многоголосый закадровый)
Cубтитры: русские, английские
Оригинальная аудиодорожка: английский-Режиссер: Марио Ван Пиблз / Mario Van Peebles
В ролях: Уэсли Снайпс, Джеки Киньонес, Сибилл Шепард, Джеймс Хироюки Лиао, Обри Доллар, Кевин Томс, Адриан Вашингтон, Ной Флайсс, Билл Коббс, Кевин Чэпмен, Марио Ван Пиблз-Описание: Торговец наркотиками решает завязать со своим преступным прошлым и зажить порядочной жизнью, став честным и всеми уважаемым гражданином. Но все его благие намерения идут прахом, когда он соглашается прийти на день рождения своего приятеля-гангстера.
Вновь оказавшись в самом центре разборок между уголовными преступниками и продажными полицейскими, он бежит с вечеринки, прихватив с собой красавицу-танцовщицу и чемоданчик, доверху набитый долларами. Спасаясь от преследования, он мчится навстречу своей судьбе, уготовившей ему невероятные приключения...-
-Качество видео: BDRip 720p
Формат видео: MKV
Видео: X.264, 1280x544, 5085 Kbps, 23.976 fps
Аудио 1: AC3, 48000 Hz, 448 Kbps, 5.1 ch - RUS
Аудио 2: AC3, 48000 Hz, 640 Kbps, 5.1 ch - ENG
Субтитры: SRT - русские, английские
-Скриншоты Резервные скриншоты
-
MediaInfo
Format : Matroska
Format version : Version 4 / Version 2
File size : 4.37 GiB
Duration : 1h 41mn
Overall bit rate : 6 175 Kbps
Movie name : Тяжелый случай / Hard Luck (2006) BDRip 720p [RG Torrents.ru]
Encoded date : UTC 2014-12-01 11:32:59
Writing application : mkvmerge v7.3.0 ('Nouages') 32bit built on Oct 22 2014 18:44:01
Writing library : libebml v1.3.0 + libmatroska v1.4.1
Cover : Yes
Video
ID : 1
Format : AVC
Format/Info : Advanced Video Codec
Format profile : High@L4.1
Format settings, CABAC : Yes
Format settings, ReFrames : 9 frames
Codec ID : V_MPEG4/ISO/AVC
Duration : 1h 41mn
Bit rate : 5 085 Kbps
Width : 1 280 pixels
Height : 544 pixels
Display aspect ratio : 2.35:1
Frame rate mode : Constant
Frame rate : 23.976 fps
Color space : YUV
Chroma subsampling : 4:2:0
Bit depth : 8 bits
Scan type : Progressive
Bits/(Pixel*Frame) : 0.305
Stream size : 3.51 GiB (80%)
Title : RG Torrents.ru
Writing library : x264 core 142 r2431 ac76440
Encoding settings : cabac=1 / ref=9 / deblock=1:-3:-3 / analyse=0x3:0x113 / me=umh / subme=10 / psy=1 / psy_rd=1.05:0.10 / mixed_ref=1 / me_range=32 / chroma_me=1 / trellis=2 / 8x8dct=1 / cqm=0 / deadzone=21,11 / fast_pskip=0 / chroma_qp_offset=-3 / threads=6 / lookahead_threads=1 / sliced_threads=0 / nr=0 / decimate=1 / interlaced=0 / bluray_compat=0 / constrained_intra=0 / bframes=9 / b_pyramid=2 / b_adapt=2 / b_bias=0 / direct=3 / weightb=1 / open_gop=0 / weightp=2 / keyint=240 / keyint_min=23 / scenecut=40 / intra_refresh=0 / rc_lookahead=60 / rc=2pass / mbtree=0 / bitrate=5085 / ratetol=1.0 / qcomp=0.70 / qpmin=0 / qpmax=69 / qpstep=4 / cplxblur=20.0 / qblur=0.5 / vbv_maxrate=30000 / vbv_bufsize=40000 / nal_hrd=none / filler=0 / ip_ratio=1.30 / pb_ratio=1.30 / aq=1:0.80
Language : English
Default : Yes
Forced : No
Audio #1
ID : 2
Format : AC-3
Format/Info : Audio Coding 3
Mode extension : CM (complete main)
Format settings, Endianness : Big
Codec ID : A_AC3
Duration : 1h 41mn
Bit rate mode : Constant
Bit rate : 448 Kbps
Channel(s) : 6 channels
Channel positions : Front: L C R, Side: L R, LFE
Sampling rate : 48.0 KHz
Bit depth : 16 bits
Compression mode : Lossy
Stream size : 325 MiB (7%)
Title : MVO
Language : Russian
Default : Yes
Forced : No
Audio #2
ID : 3
Format : AC-3
Format/Info : Audio Coding 3
Mode extension : CM (complete main)
Format settings, Endianness : Big
Codec ID : A_AC3
Duration : 1h 41mn
Bit rate mode : Constant
Bit rate : 640 Kbps
Channel(s) : 6 channels
Channel positions : Front: L C R, Side: L R, LFE
Sampling rate : 48.0 KHz
Bit depth : 16 bits
Compression mode : Lossy
Stream size : 464 MiB (10%)
Title : Original
Language : English
Default : No
Forced : No
Text #1
ID : 4
Format : UTF-8
Codec ID : S_TEXT/UTF8
Codec ID/Info : UTF-8 Plain Text
Language : Russian
Default : No
Forced : No
Text #2
ID : 5
Format : UTF-8
Codec ID : S_TEXT/UTF8
Codec ID/Info : UTF-8 Plain Text
Language : English
Default : No
Forced : No
Menu
00:00:00.000 : en:Chapter 01
00:07:35.538 : en:Chapter 02
00:13:00.988 : en:Chapter 03
00:18:01.538 : en:Chapter 04
00:25:14.596 : en:Chapter 05
00:32:16.267 : en:Chapter 06
00:37:37.922 : en:Chapter 07
00:43:33.819 : en:Chapter 08
00:50:16.179 : en:Chapter 09
00:54:26.888 : en:Chapter 10
00:59:27.105 : en:Chapter 11
01:07:17.867 : en:Chapter 12
01:12:39.063 : en:Chapter 13
01:18:12.270 : en:Chapter 14
01:23:29.963 : en:Chapter 15
01:29:16.100 : en:Chapter 16
Сравнение
с [url=http://***/forum/viewtopic.php?t=4541946]http://***/forum/viewtopic.php?t=4541946[/url] http://screenshotcomparison.com/comparison/102409/picture:0
Скачать

Скачать торрент!

Как скачивать? · Что такое торрент? · Рейтинг и ограничения

Сайт не распространяет и не хранит электронные версии произведений, а лишь предоставляет доступ к создаваемому пользователями каталогу ссылок на торрент-файлы, которые содержат только списки хеш-сумм

[Профиль] [ЛС]
Показать сообщения:    
Ответить на тему

Текущее время: Сегодня 05:59

Часовой пояс: GMT + 4



Вы не можете начинать темы
Вы не можете отвечать на сообщения
Вы не можете редактировать свои сообщения
Вы не можете удалять свои сообщения
Вы не можете голосовать в опросах
Вы не можете прикреплять файлы к сообщениям
Вы не можете скачивать файлы