Я не вернусь / Ma ei tule tagasi / I won\'t come back (2014) (Ильмар Рааг) [2014, драма, роуд-муви, DVDRip]

Ответить на тему
 
Автор Сообщение

user ®

Стаж: 7 лет 7 месяцев

Сообщений: 20008

Пост Пост: #1 от 03-Дек-2014 05:55

[Цитировать]

Я не вернусь / Ma ei tule tagasi / I won't come back (2014)
Жанр: драма, роуд-муви
Год выпуска: 2014
Продолжительность: 01:45:12
Производство: Россия, Эстония, Финляндия, Беларусь, Казахстан
Режиссёр: Ильмар Рааг
В ролях: Полина Пушкарук, Виктория Лобачёва,
Андрей Астраханцев, Сергей Яценюк, Ольга Белинская, Алла Еминцева, Александра Лесникова, Юрий Орлов, Галина Мочалова, Татьяна Зыкова, Лиана Сергеева, Дарья Гаврилова, Александр Передков, Наталья Третьякова, Ирина Основина, Людмила Елисеева, Наталья Сизова, Александр Карпухов, и др.

Описание: Последняя по времени работа известного эстонского кинорежиссёра Ильмара Раага, созданная при участии интернациональной съёмочной группы, представляющей пять стран. Картина снята на русском языке по сценарию российского драматурга. Сами съёмки проходили в Санкт-Петербурге, а также в Белоруссии и Казахстане.
На сей раз Ильмар Рааг - автор нашумевшего "Класса" - рассказывает драматическую историю путешествия двух взрослых детей, которые никогда в этом мире не чувствовали и не видели настоящей любви.
Воспитанница детского дома Аня Морозова - привлекательная и успешная девушка. Окончив школу с золотой медалью, она продолжает обучение в аспирантуре, читает лекции по Байрону и состоит в романтических отношениях с женатым профессором. Тишину её размеренной жизни нарушает нагрянувший с пустяковой просьбой однокашник Дима. Из-за своей доверчивости Аня попадает в безвыходную ситуацию и вынуждена скрываться от полиции. Будучи воспитанницей детдома, она решает переждать трудное время в распределителе для бездомных детей: к счастью, внешность Ани располагает к тому, чтобы её приняли за подростка. Случай сводит её с 13-летней сиротой Кристиной - девочкой с исключительно сложным, противоречивым характером, которая, в отличие от Ани, точно знает, как и куда надо бежать - автостопом в Казахстан, где якобы живет её родная бабушка. И, хотя поездка через всю страну автостопом выглядит как настоящее сумасшествие, а бабушка рискует оказаться мифом, Аня всё же соглашается составить Кристине компанию. Девушки отправляются в удивительное путешествие, пройдя по пути, который напрочь перевернёт мир Ани и заставит её переписать свою жизнь заново...

Доп. информация: Фестивали и награды:
2014 - Международный кинофестиваль Трайбека, Нью-Йорк / Tribeca Film Festival - Специальный Приз жюри и приз Норы Эфрон за сценарий
2014 - VIII Международный кинофестиваль имени Андрея Тарковского "Зеркало" – приз "За профессиональные достижения".
2014 - XXI Международный фестиваль актеров кино "Созвездие" - Приз Полине Пушкарук в номинации "Лучший женский дебют".
2014 - XXIII Открытый фестиваль кино стран СНГ, Латвии, Литвы и Эстонии "Киношок", Анапа - Приз за лучшую женскую роль в полнометражном кино (Полина Пушкарук и Виктория Лобачёва).
2014 - Фестиваль Film by the Sea, Влиссинген, Нидерланды - Главный Приз.
2014 - VII Международный кинофестиваль "Восток & Запад. Классика и авангард" - Золотой сарматский олень от компании "МегаФон" и приз за лучшую женскую роль актёрскому дуэту - Полине Пушкарук и Вике Лобачёвой.
2014 - XXI Минский международный кинофестиваль "Лiстапад" - Приз Президента Беларуси "За гуманизм и духовность в кино".

Отличие данной раздачи от имеющихся в сети web-рипов: чистый звук с DVD-скринера и нормальная плавная картинка (не дёргается и не стробит).
Релиз

Сэмпл: http://multi-up.com/1017107
Качество видео: DVDRip
Формат видео: AVI
Видео: 720х304 (2,35:1), 25 fps, XviD, 1267 Кбит/сек
Аудио: 448 Кбит/сек, 6 каналов, 16 бит, 48 КГц, AC3
MediaInfo
Формат : AVI
Формат/Информация : Audio Video Interleave
Размер файла : 1,27 Гбайт
Продолжительность : 1 ч. 45 м.
Общий поток : 1725 Кбит/сек
Библиотека кодирования : VirtualDub build 32842/release
Видео
Идентификатор : 0
Формат : MPEG-4 Visual
Профиль формата : Advanced Simple@L5
Параметр BVOP формата : 1
Параметр QPel формата : Нет
Параметр GMC формата : Без точки перехода
Параметр матрицы формата : Default (H.263)
Идентификатор кодека : XVID
Идентификатор кодека/Подсказка : XviD
Продолжительность : 1 ч. 45 м.
Битрейт : 1267 Кбит/сек
Ширина : 720 пикселей
Высота : 304 пикселя
Соотношение сторон : 2,35:1
Частота кадров : 25,000 кадров/сек
Цветовое пространство : YUV
Субдискретизация насыщенности : 4:2:0
Битовая глубина : 8 бит
Тип развёртки : Прогрессивная
Метод сжатия : С потерями
Бит/(Пиксели*Кадры) : 0.232
Размер потока : 953 Мбайт (73%)
Библиотека кодирования : XviD 64
Аудио
Идентификатор : 1
Формат : AC-3
Формат/Информация : Audio Coding 3
Расширение режима : CM (complete main)
Параметр Endianness формата : Big
Идентификатор кодека : 2000
Продолжительность : 1 ч. 45 м.
Вид битрейта : Постоянный
Битрейт : 448 Кбит/сек
Каналы : 6 каналов
Расположение каналов : Front: L C R, Side: L R, LFE
Частота : 48,0 КГц
Битовая глубина : 16 бит
Метод сжатия : С потерями
Размер потока : 337 Мбайт (26%)
Выравнивание : Разделение по промежуткам
Продолжительность промежутка : 40 мс. (1,00 видеокадр)
Время предзагрузки промежутка : 500 мс.
Скриншот c названием фильма Скриншоты Киноплакаты
Скачать

Скачать торрент!

Как скачивать? · Что такое торрент? · Рейтинг и ограничения

Сайт не распространяет и не хранит электронные версии произведений, а лишь предоставляет доступ к создаваемому пользователями каталогу ссылок на торрент-файлы, которые содержат только списки хеш-сумм

[Профиль] [ЛС]
Показать сообщения:    
Ответить на тему

Текущее время: Сегодня 22:16

Часовой пояс: GMT + 4



Вы не можете начинать темы
Вы не можете отвечать на сообщения
Вы не можете редактировать свои сообщения
Вы не можете удалять свои сообщения
Вы не можете голосовать в опросах
Вы не можете прикреплять файлы к сообщениям
Вы не можете скачивать файлы