Поместье 2: Зло вернулось / 1920: Зло возвращается / 1920 Evil Returns (Бхушан Патель / Bhushan Patel) [2012, Индия, Ужасы, мелодрама, HDRip] VO (xixidok)

Ответить на тему
 
Автор Сообщение

user ®

Стаж: 12 лет

Сообщений: 15092

Пост Пост: #1 от 02-Дек-2014 23:35

[Цитировать]

Поместье 2: Зло вернулось / 1920: Зло возвращается / 1920 Evil Returns
Страна: Индия
Жанр: Ужасы, мелодрама
Год выпуска: 2012
Продолжительность: 02:04:11
Перевод: Одноголосый закадровый xixidok
Cубтитры: нет
Режиссер: Бхушан Патель / Bhushan Patel
В ролях: Вики Ахуджа, Тиа Баджпаи, Шарад Келкар, Видья Малвадэ, Нареш Шарма, Санджай Шарма, Афтаб Шивдасани
Описание: Молодой поэт Джайдэв Варма живет вместе с сестрой Каруной в своем особняке. Он влюблен в свою поклонницу Смрити, с которой они переписываются, но друг друга не видели. В день, когда должна состояться их встреча, Джайдэв узнает, что Смрити погибла. Ничто не может утешить его, пока однажды на берегу он не находит тело девушки, потерявшей память. Постепенно Джайдэв находит в Незнакомке знакомые черты. Она знает наизусть его стихи, но не знает, как ее зовут...
Доп. информация: Озвучил Хихикающий доктор по субтитрам гумрал и redix (Спасибо!)
Исходник BDRip (1080p)
Сэмпл: http://multi-up.com/1017023
Качество видео: HDRip
Формат видео: AVI
Видео: XviD build 50, 720x304 (2.37:1), 24 fps, 1481 kbps avg
Аудио: AC3 Dolby Digital, 48 kHz, 2/0 (L,R) ch, 192 kbps
MediaInfo
General
Complete name : F:\1920 Evil Returns\Pomestye.2.Zlo.vernulosy.2012.HDRip-Dego.avi
Format : AVI
Format/Info : Audio Video Interleave
File size : 1.46 GiB
Duration : 2h 4mn
Overall bit rate : 1 683 Kbps
Writing application : VirtualDubMod 1.5.10.2 (build 2540/release)
Writing library : VirtualDubMod build 2540/release
Video
ID : 0
Format : MPEG-4 Visual
Format profile : AdvancedSimple@L5
Format settings, BVOP : Yes
Format settings, QPel : No
Format settings, GMC : No warppoints
Format settings, Matrix : Custom
Codec ID : XVID
Codec ID/Hint : XviD
Duration : 2h 4mn
Bit rate : 1 481 Kbps
Width : 720 pixels
Height : 304 pixels
Display aspect ratio : 2.35
Frame rate : 24.000 fps
Resolution : 24 bits
Colorimetry : 4:2:0
Scan type : Progressive
Bits/(Pixel*Frame) : 0.282
Stream size : 1.29 GiB (88%)
Writing library : XviD 1.2.1 (UTC 2008-12-04)
Audio
ID : 1
Format : AC-3
Format/Info : Audio Coding 3
Codec ID : 2000
Duration : 2h 4mn
Bit rate mode : Constant
Bit rate : 192 Kbps
Channel(s) : 2 channels
Channel positions : L R
Sampling rate : 48.0 KHz
Stream size : 171 MiB (11%)
Alignment : Split accross interleaves
Interleave, duration : 42 ms (1.00 video frame)
Interleave, preload duration : 500 ms
Скриншот c названием фильма Скриншоты
Скачать

Скачать торрент! Поместье 2: Зло вернулось / 1920: Зло возвращается / 1920 Evil Returns (Бхушан Патель / Bhushan Patel) [2012, Индия, Ужасы, мелодрама, HDRip] VO (xixidok)

Как скачивать? · Что такое торрент? · Рейтинг и ограничения

Сайт не распространяет и не хранит электронные версии произведений, а лишь предоставляет доступ к создаваемому пользователями каталогу ссылок на торрент-файлы, которые содержат только списки хеш-сумм

[Профиль] [ЛС]
Показать сообщения:    
Ответить на тему

Текущее время: Сегодня 13:00

Часовой пояс: GMT + 4



Вы не можете начинать темы
Вы не можете отвечать на сообщения
Вы не можете редактировать свои сообщения
Вы не можете удалять свои сообщения
Вы не можете голосовать в опросах
Вы не можете прикреплять файлы к сообщениям
Вы не можете скачивать файлы