Супергеройское кино / Superhero Movie (Крэйг Мазин / Craig Mazin ) [2008, США, Комедия, пародия, фантастика, комиксы, BDRip 720] Dub + Ukr + original eng + Sub (rus, eng)

Ответить на тему
 
Автор Сообщение

user ®

Стаж: 7 лет 7 месяцев

Сообщений: 20008

Пост Пост: #1 от 02-Дек-2014 23:35

[Цитировать]

Супергеройское кино / Superhero Movie
«Величайшее супергеройское кино всех времен и народов»
- Год выпуска: 2008
Страна: США
Жанр: Комедия, пародия, фантастика, комиксы
Продолжительность:: 01:22:29
Перевод:: Профессиональный (дублированный) + Украинский многоголосый закадровый
Субтитры: Русские, английские
Оригинальная аудиодорожка: Английская
Главы: Присутствуют, сохранены оригинальные
-
Режиссер: Крэйг Мазин / Craig Mazin
В ролях:: Дрейк Белл, Сара Пэкстон, Кристофер МакДональд, Лесли Нильсен, Кевин Харт, Мэрион Росс, Райан Хансен, Кит Дэвид, Брент Спайнер, Роберт Джой
О фильме:: Сколько супергероев уже пытались спасти мир? Знакомьтесь с новым: его зовут Рик Райкер! Обычный школьник вдруг неожиданным способом обретает суперспособности (кроме умения летать!) Вот если бы ещё он знал, как их использовать. Так что берегитесь: Стрекозец спешит на помощь!
-
Релиз:
Автор рипа: Joker
-
Качество: BDRip-720р (источник: / BD-Remux / 1080i)
Формат: MKV
Видео: 1280x720 (2.40:1), 25 fps, MPEG-4 AVC, ~8800 kbps avg, 0.382 bit/pixel
Аудио #1: 48 kHz/24-bit, DTS, 3/2 (L,C,R,l,r) + LFE ch, ~755 kbps |Russian - Dub|
Аудио #2: 48 kHz/24-bit, DTS, 3/2 (L,C,R,l,r) + LFE ch, ~1509 kbps |English|
Аудио #3: 48 kHz, AC3 Dolby Digital, 3/2 (L,C,R,l,r) + LFE ch, ~384 kbps |Ukrainian - MVO|
Скачать: Семпл

Скриншоты MediaInfo
Уникальный идентификатор : 197047183645953065182897607079291322906 (0x943DE83A985C64C281DF1E832DC1021A)
Полное имя :Superhero.Movie.2008.720p.BluRay.Rus.Eng.Ukr.-HQCLUB.mkv
Формат : Matroska
Версия формата : Version 2
Размер файла : 6,59 Гбайт
Продолжительность : 1 ч. 22 м.
Общий поток : 11,4 Мбит/сек
Дата кодирования : UTC 2014-11-29 06:28:04
Программа кодирования : mkvmerge v5.2.0 ('I can't explain') built on Dec 18 2011 18:12:03
Библиотека кодирования : libebml v1.2.3 + libmatroska v1.3.0
Видео
Идентификатор : 1
Формат : AVC
Формат/Информация : Advanced Video Codec
Профиль формата : High@L4.1
Параметр CABAC формата : Да
Параметр ReFrames формата : 7 кадров
Режим смешивания : Header stripping
Идентификатор кодека : V_MPEG4/ISO/AVC
Продолжительность : 1 ч. 22 м.
Битрейт : 8800 Кбит/сек
Ширина : 1280 пикселей
Высота : 720 пикселей
Соотношение сторон : 16:9
Режим частоты кадров : Постоянный
Частота кадров : 25,000 кадров/сек
Цветовое пространство : YUV
Субдискретизация насыщенности : 4:2:0
Битовая глубина : 8 бит
Тип развёртки : Прогрессивная
Бит/(Пиксели*Кадры) : 0.382
Размер потока : 4,93 Гбайт (75%)
Заголовок : Супергеройское кино / Superhero Movie (2008) BDRip 720p by HQCLUB [Joker]
Библиотека кодирования : x264 core 142 r2491 24e4fed
Настройки программы : cabac=1 / ref=8 / deblock=1:-1:-1 / analyse=0x3:0x113 / me=umh / subme=11 / psy=1 / psy_rd=1.10:0.10 / mixed_ref=1 / me_range=32 / chroma_me=1 / trellis=2 / 8x8dct=1 / cqm=0 / deadzone=21,11 / fast_pskip=1 / chroma_qp_offset=-3 / threads=6 / lookahead_threads=1 / sliced_threads=0 / nr=0 / decimate=1 / interlaced=0 / bluray_compat=0 / constrained_intra=0 / bframes=13 / b_pyramid=1 / b_adapt=2 / b_bias=0 / direct=3 / weightb=1 / open_gop=0 / weightp=2 / keyint=250 / keyint_min=25 / scenecut=40 / intra_refresh=0 / rc_lookahead=40 / rc=2pass / mbtree=1 / bitrate=8800 / ratetol=1.0 / qcomp=0.70 / qpmin=0 / qpmax=69 / qpstep=4 / cplxblur=20.0 / qblur=0.5 / vbv_maxrate=50000 / vbv_bufsize=62500 / nal_hrd=none / filler=0 / ip_ratio=1.40 / aq=2:0.90
Язык : English
Default : Да
Forced : Нет
Аудио #1
Идентификатор : 2
Формат : DTS
Формат/Информация : Digital Theater Systems
Режим : 16
Параметр Endianness формата : Big
Режим смешивания : Header stripping
Идентификатор кодека : A_DTS
Продолжительность : 1 ч. 22 м.
Вид битрейта : Постоянный
Битрейт : 755 Кбит/сек
Каналы : 6 каналов
Расположение каналов : Front: L C R, Side: L R, LFE
Частота : 48,0 КГц
Битовая глубина : 24 бит
Метод сжатия : С потерями
Размер потока : 445 Мбайт (7%)
Заголовок : DTS 5.1 @ 755 kbps - Dub
Язык : Russian
Default : Нет
Forced : Нет
Аудио #2
Идентификатор : 3
Формат : DTS
Формат/Информация : Digital Theater Systems
Режим : 16
Параметр Endianness формата : Big
Режим смешивания : Header stripping
Идентификатор кодека : A_DTS
Продолжительность : 1 ч. 22 м.
Вид битрейта : Постоянный
Битрейт : 1509 Кбит/сек
Каналы : 6 каналов
Расположение каналов : Front: L C R, Side: L R, LFE
Частота : 48,0 КГц
Битовая глубина : 16 бит
Метод сжатия : С потерями
Размер потока : 890 Мбайт (13%)
Заголовок : DTS 5.1 @ 1509 kbps - Original
Язык : English
Default : Нет
Forced : Нет
Аудио #3
Идентификатор : 4
Формат : AC-3
Формат/Информация : Audio Coding 3
Расширение режима : CM (complete main)
Параметр Endianness формата : Big
Режим смешивания : Header stripping
Идентификатор кодека : A_AC3
Продолжительность : 1 ч. 22 м.
Вид битрейта : Постоянный
Битрейт : 384 Кбит/сек
Каналы : 6 каналов
Расположение каналов : Front: L C R, Side: L R, LFE
Частота : 48,0 КГц
Битовая глубина : 16 бит
Метод сжатия : С потерями
Размер потока : 227 Мбайт (3%)
Заголовок : АС3 5.1 @ 384 kbps - MVO
Язык : Ukrainian
Default : Нет
Forced : Нет
Текст #1
Идентификатор : 5
Формат : UTF-8
Идентификатор кодека : S_TEXT/UTF8
Идентификатор кодека/Информация : UTF-8 Plain Text
Заголовок : Full
Язык : Russian
Default : Нет
Forced : Нет
Текст #2
Идентификатор : 6
Формат : UTF-8
Идентификатор кодека : S_TEXT/UTF8
Идентификатор кодека/Информация : UTF-8 Plain Text
Заголовок : Full
Язык : English
Default : Нет
Forced : Нет
Меню
00:00:00.000 : :Chapter 01
00:04:46.000 : :Chapter 02
00:08:42.000 : :Chapter 03
00:13:17.000 : :Chapter 04
00:18:58.000 : :Chapter 05
00:28:54.400 : :Chapter 06
00:36:27.000 : :Chapter 07
00:45:11.760 : :Chapter 08
00:53:54.599 : :Chapter 09
00:59:51.360 : :Chapter 10
01:05:20.599 : :Chapter 11
01:07:59.000 : :Chapter 12
01:10:46.118 : :Chapter 13
01:13:00.000 : :Chapter 14
01:13:57.238 : :Chapter 15
01:17:25.279 : :Chapter 16
01:22:28.960 : :Chapter 17
Скачать

Скачать торрент!

Как скачивать? · Что такое торрент? · Рейтинг и ограничения

Сайт не распространяет и не хранит электронные версии произведений, а лишь предоставляет доступ к создаваемому пользователями каталогу ссылок на торрент-файлы, которые содержат только списки хеш-сумм

[Профиль] [ЛС]
Показать сообщения:    
Ответить на тему

Текущее время: Сегодня 22:31

Часовой пояс: GMT + 4



Вы не можете начинать темы
Вы не можете отвечать на сообщения
Вы не можете редактировать свои сообщения
Вы не можете удалять свои сообщения
Вы не можете голосовать в опросах
Вы не можете прикреплять файлы к сообщениям
Вы не можете скачивать файлы