Ищу попутчика (Денис Елеонский) [2014, Лирическая комедия, HDTVRip]

Ответить на тему
 
Автор Сообщение

user ®

Стаж: 7 лет 7 месяцев

Сообщений: 20008

Пост Пост: #1 от 02-Дек-2014 23:35

[Цитировать]

Ищу попутчика Жанр: Лирическая комедия
Год выпуска: 2014
Продолжительность: 01:29:06
Режиссёр: Денис Елеонский
В ролях: Людмила Свитова, Елена Симонова, Василий Кортуков, Андрей Аверков, Александр Нестеров (III), Татьяна Ткач, Виктор Костецкий, Полина Воробьёва, Наталья Высочанская, Денис Елеонский, Егор Кутенков, Вячеслав Коробицин, Хельга Филиппова, Илья Разин, Виктор Санков, Антон Новиков
Описание: У Василисы Кулебяки из небольшого старинного русского городка в один день рушится всё – работа, мечты, личная жизнь… Соседка подсказывает ей проверенный способ пережить потрясение – отправиться в Петербург в период Белых ночей. Василиса через интернет находит попутчицу, чтобы вместе поделить расходы на проживание в мини-гостинице. В результате путаницы её соседка из Москвы оказывается… соседом. Да ещё с характером, который Василиса на дух не переносит. Но это только начало сюрпризов, которые ждут Василису в период Белых ночей…
Рип от:
Сэмпл: http://multi-up.com/1017024
Качество видео: HDTVRip
Формат видео: AVI
Видео: 624x352 (1.77:1), 25 fps, XviD build 73 ~1031 kbps avg, 0.19 bit/pixel
Аудио: 48 kHz, MPEG Layer 3, 2 ch, ~128.00 kbps avg
MediaInfo
Общее
Полное имя : D:\Изготовка рипа\Ischu.poputchika.2014.HDTVRip.Шкипер.avi
Формат : AVI
Формат/Информация : Audio Video Interleave
Размер файла : 745 Мбайт
Продолжительность : 1 ч. 29 м.
Общий поток : 1170 Кбит/сек
Программа кодирования : VirtualDubMod 1.5.10.3 | www.virtualdub-fr.org || (build 2550/release)
Библиотека кодирования : VirtualDubMod build 2550/release
Видео
Идентификатор : 0
Формат : MPEG-4 Visual
Профиль формата : Advanced Simple@L5
Параметр BVOP формата : 1
Параметр QPel формата : Нет
Параметр GMC формата : Без точки перехода
Параметр матрицы формата : Default (MPEG)
Идентификатор кодека : XVID
Идентификатор кодека/Подсказка : XviD
Продолжительность : 1 ч. 29 м.
Битрейт : 1032 Кбит/сек
Ширина : 624 пикселя
Высота : 352 пикселя
Соотношение сторон : 16:9
Частота кадров : 25,000 кадров/сек
Цветовое пространство : YUV
Субдискретизация насыщенности : 4:2:0
Битовая глубина : 8 бит
Тип развёртки : Прогрессивная
Метод сжатия : С потерями
Бит/(Пиксели*Кадры) : 0.188
Размер потока : 658 Мбайт (88%)
Библиотека кодирования : XviD 73
Аудио
Идентификатор : 1
Формат : MPEG Audio
Версия формата : Version 1
Профиль формата : Layer 3
Режим : Joint stereo
Расширение режима : MS Stereo
Идентификатор кодека : 55
Идентификатор кодека/Подсказка : MP3
Продолжительность : 1 ч. 29 м.
Вид битрейта : Постоянный
Битрейт : 128 Кбит/сек
Каналы : 2 канала
Частота : 48,0 КГц
Метод сжатия : С потерями
Размер потока : 81,6 Мбайт (11%)
Выравнивание : Соединение по промежуткам
Продолжительность промежутка : 40 мс. (1,00 видеокадр)
Время предзагрузки промежутка : 504 мс.
Библиотека кодирования : LAME3.99r
Настройки программы : -m j -V 4 -q 2 -lowpass 17 -b 128
Скриншот c названием фильма Скриншоты
Скачать

Скачать торрент!

Как скачивать? · Что такое торрент? · Рейтинг и ограничения

Сайт не распространяет и не хранит электронные версии произведений, а лишь предоставляет доступ к создаваемому пользователями каталогу ссылок на торрент-файлы, которые содержат только списки хеш-сумм

[Профиль] [ЛС]
Показать сообщения:    
Ответить на тему

Текущее время: Сегодня 02:07

Часовой пояс: GMT + 4



Вы не можете начинать темы
Вы не можете отвечать на сообщения
Вы не можете редактировать свои сообщения
Вы не можете удалять свои сообщения
Вы не можете голосовать в опросах
Вы не можете прикреплять файлы к сообщениям
Вы не можете скачивать файлы